logo

Tyler Perry's Hell Hath No Fury Like A Woman Scorned 2014 720p WE...

  • Category Movies
  • Type Divx/Xvid
  • Language English
  • Total size 1.3 GB
  • Uploaded By pimp4003
  • Downloads 1573
  • Last checked 1 day ago
  • Date uploaded 2 years ago
  • Seeders 7
  • Leechers 5

Tyler Perry's Hell Hath No Fury Lik...

Anita is a successful, single woman who has it all - a great job, a loving family, and the ability to pay for her baby sister's wedding. According to her best friend, however, there's only one thing missing...the love of a good man. At her friend's insistence, she meets the seemingly perfect man online and all seems well, until he convinces her to get married in Las Vegas and her life quickly spirals out of control. Can she regain the upper hand, or will the tides turn for the worse?

Infohash : 82C3C35E228A245C3DC4D0670605D9E2724DEE38

.....http://pimp4003.net/ ..................ENJOY

[PIMP THE ONE AND ONLY PIMPSTER.....PRESENTS





http://www.facebook.com/pimp4003

https://twitter.com/PIMP4003DOTNET



Tyler Perry's Hell Hath No Fury Like A Woman Scorned 2014 720p WEBRip x264 Pimp4003

Director: Darryl Epp
Writer: Darryl Epp
Stars: Alex DeCourville, Heather Jane Farr, Patricia Valestin | See full cast and crew ยป

ENJOY

PIMP4003

Video
ID : 1
Format : MPEG-4 Visual
Format profile : [email protected]
Format settings, BVOP : No
Format settings, QPel : No
Format settings, GMC : No warppoints
Format settings, Matrix : Default (H.263)
Codec ID : 20
Duration : 1h 12mn
Bit rate : 2 414 Kbps
Width : 1 280 pixels
Height : 536 pixels
Display aspect ratio : 2.40:1
Frame rate mode : Variable
Frame rate : 59.940 fps
Minimum frame rate : 59.916 fps
Maximum frame rate : 60.157 fps
Color space : YUV
Chroma subsampling : 4:2:0
Bit depth : 8 bits
Scan type : Progressive
Compression mode : Lossy
Bits/(Pixel*Frame) : 0.059
Stream size : 1.22 GiB (95%)
Writing library : ZJMedia MPEG Encoder

Audio
ID : 2
Format : AAC
Format/Info : Advanced Audio Codec
Format profile : LC
Codec ID : 40
Duration : 1h 12mn
Bit rate mode : Variable
Bit rate : 128 Kbps
Channel(s) : 2 channels
Channel positions : Front: L R
Sampling rate : 48.0 KHz
Compression mode : Lossy
Stream size : 66.3 MiB (5%)





Files:

  • [WWW.PIMP4003.NET] Tyler Perry Hell Hath No Fury Like A Woman Scorned 2014 720p WEBRip x264 Pimp4003.mp4 (1.3 GB)
  • Torrent Downloaded From Pimp4003.net.txt (0.1 KB)

There are currently no comments. Feel free to leave one :)

Code:

  • udp://inferno.demonoid.ph:3389/announce
  • udp://open.demonii.com:1337/announce
  • http://tracker1.wasabii.com.tw:6969/announce
  • udp://open.demonii.com:1337/announce
  • udp://tracker.istole.it:80/announce
  • udp://tracker.publicbt.com:80/announce
  • udp://tracker.openbittorrent.com:80/announce
  • udp://9.rarbg.com:2710/announce