logo

The Hunger Games Mockingjay - Part 1 2014 720p HDCAM NEW SOURCE x...

  • Category Movies
  • Type Divx/Xvid
  • Language English
  • Total size 1.9 GB
  • Uploaded By pimp4003
  • Downloads 3074
  • Last checked 1 day ago
  • Date uploaded 2 years ago
  • Seeders 2
  • Leechers 1

The Hunger Games: Mockingjay - Part...

AdventureScience FictionThriller

Katniss Everdeen reluctantly becomes the symbol of a mass rebellion against the autocratic Capitol.

Infohash : AE72A89F896062952F01F4893B1B33FF8BDA2F2A

.....http://pimp4003.net/ OK VIDEO DID WORK HERE AND THERE....AUDIO WAS GOOD TOO..................ENJOY

PIMP THE ONE AND ONLY PIMPSTER.....PRESENTS





http://www.facebook.com/pimp4003

https://twitter.com/PIMP4003DOTNET



The Hunger Games Mockingjay - Part 1 2014 720p HDCAM NEW SOURCE x264 Pimp4003

http://www.imdb.com/title/tt1951265/

When Katniss destroys the games, she goes to District 13 after District 12 is destroyed. She meets President Coin who convinces her to be the symbol of rebellion, while trying to save Peeta from the Capitol.

Director: Francis Lawrence
Writers: Peter Craig (screenplay), Danny Strong (screenplay), 2 more credits »
Stars: Jennifer Lawrence, Josh Hutcherson, Liam Hemsworth | See full cast and crew »

ENJOY

PIMP4003

Video
ID : 1
Format : MPEG-4 Visual
Format profile : [email protected]
Format settings, BVOP : No
Format settings, QPel : No
Format settings, GMC : No warppoints
Format settings, Matrix : Default (H.263)
Codec ID : 20
Duration : 1h 50mn
Bit rate : 2 346 Kbps
Width : 1 280 pixels
Height : 536 pixels
Display aspect ratio : 2.40:1
Frame rate mode : Variable
Frame rate : 59.940 fps
Minimum frame rate : 59.916 fps
Maximum frame rate : 60.157 fps
Color space : YUV
Chroma subsampling : 4:2:0
Bit depth : 8 bits
Scan type : Progressive
Compression mode : Lossy
Bits/(Pixel*Frame) : 0.057
Stream size : 1.81 GiB (94%)
Writing library : ZJMedia MPEG Encoder

Audio
ID : 2
Format : AAC
Format/Info : Advanced Audio Codec
Format profile : LC
Codec ID : 40
Duration : 1h 50mn
Bit rate mode : Variable
Bit rate : 128 Kbps
Channel(s) : 2 channels
Channel positions : Front: L R
Sampling rate : 48.0 KHz
Compression mode : Lossy
Stream size : 101 MiB (5%)



Files:

  • [WWW.PIMP4003.NET] The Hunger Games Mockingjay - Part 1 2014 720p HDCAM NEW SOURCE x264 Pimp4003.mp4 (1.9 GB)
  • Torrent Downloaded From Pimp4003.net.txt (0.1 KB)
  • Torrent downloaded from demonoid.ph.txt (0.0 KB)

There are currently no comments. Feel free to leave one :)

Code:

  • udp://open.demonii.com:1337/announce
  • http://inferno.demonoid.ph:3389/announce
  • http://tracker1.wasabii.com.tw:6969/announce
  • udp://open.demonii.com:1337/announce
  • udp://tracker.istole.it:80/announce
  • udp://tracker.publicbt.com:80/announce
  • udp://tracker.openbittorrent.com:80/announce
  • udp://9.rarbg.com:2710/announce