logo

The Best Of Me 2014 720p HDCAM FIRST ENG x264 Pimp4003

  • Category Movies
  • Type Divx/Xvid
  • Language English
  • Total size 2.0 GB
  • Uploaded By pimp4003
  • Downloads 2794
  • Last checked 1 day ago
  • Date uploaded 2 years ago
  • Seeders 1
  • Leechers 0

The Best of Me

DramaRomance

A pair of former high school sweethearts reunite after many years when they return to visit their small hometown.

Infohash : B97A88DF2C9DC8B68237087F091F1B0A03DDFF05

.....http://pimp4003.net/ SOURCE IS PIMP4003....ONE OF THE BEST CAMS I HAVE RELEASED...THIS IS THE MY OWN SOURCE....VERY GOOD VIDEO DID WORK HERE AND THERE....AUDIO WAS GOOD TOO..................ENJOY

PIMP THE ONE AND ONLY PIMPSTER.....PRESENTS





http://www.facebook.com/pimp4003

https://twitter.com/PIMP4003DOTNET



The Best Of Me 2014 720p HDCAM FIRST ENG x264 Pimp4003

http://www.imdb.com/title/tt1972779/

A pair of former high school sweethearts reunite after many years when they return to visit their small hometown.

Director: Michael Hoffman
Writers: J. Mills Goodloe (screenplay), Will Fetters (screenplay), 1 more credit »
Stars: James Marsden, Michelle Monaghan, Luke Bracey | See full cast and crew »

ENJOY

PIMP4003

Video
ID : 1
Format : MPEG-4 Visual
Format profile : [email protected]
Format settings, BVOP : No
Format settings, QPel : No
Format settings, GMC : No warppoints
Format settings, Matrix : Default (H.263)
Codec ID : 20
Duration : 1h 51mn
Bit rate : 2 398 Kbps
Width : 1 280 pixels
Height : 536 pixels
Display aspect ratio : 2.40:1
Frame rate mode : Variable
Frame rate : 59.940 fps
Minimum frame rate : 59.916 fps
Maximum frame rate : 60.157 fps
Color space : YUV
Chroma subsampling : 4:2:0
Bit depth : 8 bits
Scan type : Progressive
Compression mode : Lossy
Bits/(Pixel*Frame) : 0.058
Stream size : 1.86 GiB (93%)
Writing library : ZJMedia MPEG Encoder
Encoded date : UTC 1970-01-01 00:00:00
Tagged date : UTC 1970-01-01 00:00:00

Audio
ID : 2
Format : AAC
Format/Info : Advanced Audio Codec
Format profile : LC
Codec ID : 40
Duration : 1h 51mn
Bit rate mode : Variable
Bit rate : 160 Kbps
Channel(s) : 2 channels
Channel positions : Front: L R
Sampling rate : 48.0 KHz
Compression mode : Lossy
Stream size : 127 MiB (6%)
Encoded date : UTC 1970-01-01 00:00:00
Tagged date : UTC 1970-01-01 00:00:00



Files:

  • [WWW.PIMP4003.NET] The Best Of Me 2014 720p HDCAM FIRST ENG x264 Pimp4003.mp4 (2.0 GB)
  • Torrent Downloaded From Pimp4003.net.txt (0.1 KB)
  • Torrent downloaded from demonoid.ph.txt (0.0 KB)

There are currently no comments. Feel free to leave one :)

Code:

  • http://inferno.demonoid.ph:3389/announce
  • udp://open.demonii.com:1337/announce
  • http://inferno.demonoid.ph:3389/announce
  • http://tracker1.wasabii.com.tw:6969/announce
  • udp://open.demonii.com:1337/announce
  • udp://tracker.istole.it:80/announce
  • udp://tracker.publicbt.com:80/announce
  • udp://tracker.openbittorrent.com:80/announce
  • udp://9.rarbg.com:2710/announce