logo

Fury 2014 720p HC HDCAM NEW SOURCE x264 Pimp4003

  • Category Movies
  • Type Divx/Xvid
  • Language English
  • Total size 2.1 GB
  • Uploaded By pimp4003
  • Downloads 977
  • Last checked 14 hours ago
  • Date uploaded 2 years ago
  • Seeders 0
  • Leechers 1

Fury

ActionDramaWar

Last months of World War II in April 1945. As the Allies make their final push in the European Theater, a battle-hardened U.S. Army sergeant in the 2nd Armored Division named Wardaddy commands a Sherman tank called "Fury" and its five-man crew on a deadly mission behind enemy lines. Outnumbered and outgunned, Wardaddy and his men face overwhelming odds in their heroic attempts to strike at the heart of Nazi Germany.

Infohash : 73F8BCDF61BBE7D0B1C4E9EA35A6DEE1CE4ED9C0

FOR SCREENSHOTS AND FASTER DOWNLOAD SPEEDS PLEASE VISIT.....http://pimp4003.net/ SOURCE IS PIMP4003....HAS SPANISH SUBS...IT TOOK ME A WHILE SINCE MY FIRST UPLOAD OF FURY TO FIND A BETTER CAM AND I DID...I AM GOING TO BE HONEST THIS A LITTLE BETTER THEN MY FIRST BUT NOT THAT MUCH...VIDEO IS STILL A LITTLE GRAINY DID WHAT I COULD TO IMPROVE THAT....AUDIO HAD ECHO FIXED THAT AS WELL.............ENJOY

PIMP THE ONE AND ONLY PIMPSTER.....PRESENTS





http://www.facebook.com/pimp4003

https://twitter.com/PIMP4003DOTNET



Fury 2014 720p HC HDCAM NEW SOURCE 264 Pimp4003

http://www.imdb.com/title/tt2713180/

April, 1945. As the Allies make their final push in the European Theatre, a battle-hardened army sergeant named Wardaddy commands a Sherman tank and his five-man crew on a deadly mission behind enemy lines. Out-numbered, out-gunned, and with a rookie soldier thrust into their platoon, Wardaddy and his men face overwhelming odds in their heroic attempts to strike at the heart of Nazi Germany.

Director: David Ayer
Writer: David Ayer
Stars: Brad Pitt, Shia LaBeouf, Logan Lerman | See full cast and crew ยป

PIMP4003

Video
ID : 1
Format : MPEG-4 Visual
Format profile : [email protected]
Format settings, BVOP : No
Format settings, QPel : No
Format settings, GMC : No warppoints
Format settings, Matrix : Default (H.263)
Codec ID : 20
Duration : 1h 57mn
Bit rate : 2 380 Kbps
Width : 1 280 pixels
Height : 536 pixels
Display aspect ratio : 2.40:1
Frame rate mode : Variable
Frame rate : 59.940 fps
Minimum frame rate : 59.916 fps
Maximum frame rate : 60.157 fps
Color space : YUV
Chroma subsampling : 4:2:0
Bit depth : 8 bits
Scan type : Progressive
Compression mode : Lossy
Bits/(Pixel*Frame) : 0.058
Stream size : 1.96 GiB (93%)
Writing library : ZJMedia MPEG Encoder
Encoded date : UTC 1970-01-01 00:00:00
Tagged date : UTC 1970-01-01 00:00:00

Audio
ID : 2
Format : AAC
Format/Info : Advanced Audio Codec
Format profile : LC
Codec ID : 40
Duration : 1h 57mn
Bit rate mode : Variable
Bit rate : 160 Kbps
Channel(s) : 2 channels
Channel positions : Front: L R
Sampling rate : 48.0 KHz
Compression mode : Lossy
Stream size : 135 MiB (6%)
Encoded date : UTC 1970-01-01 00:00:00
Tagged date : UTC 1970-01-01 00:00:00

Files:

  • [WWW.PIMP4003.NET] Fury 2014 720p HC HDCAM NEW SOURCE 264 Pimp4003.mp4 (2.1 GB)
  • Torrent Downloaded From Pimp4003.net.txt (0.1 KB)
  • Torrent downloaded from demonoid.ph.txt (0.0 KB)

There are currently no comments. Feel free to leave one :)

Code:

  • http://inferno.demonoid.ph:3389/announce
  • udp://open.demonii.com:1337/announce
  • http://inferno.demonoid.ph:3389/announce
  • http://tracker1.wasabii.com.tw:6969/announce
  • udp://open.demonii.com:1337/announce
  • udp://tracker.istole.it:80/announce
  • udp://tracker.publicbt.com:80/announce
  • udp://tracker.openbittorrent.com:80/announce
  • udp://9.rarbg.com:2710/announce