logo

Big Hero 6 2014 720p HDCAM NEW SOURCE V2 x264 Pimp4003

  • Category Movies
  • Type Divx/Xvid
  • Language English
  • Total size 1.6 GB
  • Uploaded By pimp4003
  • Downloads 961
  • Last checked 1 day ago
  • Date uploaded 2 years ago
  • Seeders 0
  • Leechers 0

Big Hero 6

ActionAnimationComedyScience FictionFamily

The special bond that develops between plus-sized inflatable robot Baymax, and prodigy Hiro Hamada, who team up with a group of friends to form a band of high-tech heroes.

Infohash : D8421135CCC26D3C9E789746FCB4607D4B11B51B

FOR SCREENSHOTS AND FASTER DOWNLOAD SPEEDS PLEASE VISIT.....http://pimp4003.net/ SOURCE IS PIMP4003....THE VIDEO IS MUCH BETTER THEN MY FIRST CAM OF THIS....THIS IS THE RUSSIAN SOURCE WHICH SEEMS TO BE THE BEST OUT RIGHT NOW FOR THIS MOVIE.....USED MY AUDIO FROM MY FIRST CAM EXCEPT I DID MORE WORK ON IT THIS TIME..............ENJOY [/size]

[color=green]PIMP THE ONE AND ONLY PIMPSTER.....PRESENTS





http://www.facebook.com/pimp4003

https://twitter.com/PIMP4003DOTNET



Big Hero 6 2014 720p HDCAM NEW SOURCE V2 x264 Pimp4003

http://www.imdb.com/title/tt2245084/

The special bond that develops between plus-sized inflatable robot Baymax, and prodigy Hiro Hamada, who team up with a group of friends to form a band of high-tech heroes.

Directors: Don Hall, Chris Williams
Writers: Jordan Roberts (screenplay), Daniel Gerson (screenplay), 5 more credits »
Stars: Ryan Potter, Scott Adsit, Jamie Chung | See full cast and crew »

ENJOY

PIMP4003

Video
ID : 1
Format : MPEG-4 Visual
Format profile : [email protected]
Format settings, BVOP : No
Format settings, QPel : No
Format settings, GMC : No warppoints
Format settings, Matrix : Default (H.263)
Codec ID : 20
Duration : 1h 31mn
Bit rate : 2 398 Kbps
Width : 1 280 pixels
Height : 536 pixels
Display aspect ratio : 2.40:1
Frame rate mode : Variable
Frame rate : 59.940 fps
Minimum frame rate : 59.916 fps
Maximum frame rate : 60.157 fps
Color space : YUV
Chroma subsampling : 4:2:0
Bit depth : 8 bits
Scan type : Progressive
Compression mode : Lossy
Bits/(Pixel*Frame) : 0.058
Stream size : 1.52 GiB (95%)
Writing library : ZJMedia MPEG Encoder

Audio
ID : 2
Format : AAC
Format/Info : Advanced Audio Codec
Format profile : LC
Codec ID : 40
Duration : 1h 31mn
Bit rate mode : Variable
Bit rate : 128 Kbps
Channel(s) : 2 channels
Channel positions : Front: L R
Sampling rate : 48.0 KHz
Compression mode : Lossy
Stream size : 83.3 MiB (5%)



Files:

  • [WWW.PIMP4003.NET] Big Hero 6 2014 720p HDCAM NEW SOURCE V2 x264 Pimp4003.mp4 (1.6 GB)
  • Torrent Downloaded From Pimp4003.net.txt (0.1 KB)

There are currently no comments. Feel free to leave one :)

Code:

  • udp://open.demonii.com:1337/announce
  • http://inferno.demonoid.ph:3389/announce
  • http://tracker1.wasabii.com.tw:6969/announce
  • udp://open.demonii.com:1337/announce
  • udp://tracker.istole.it:80/announce
  • udp://tracker.publicbt.com:80/announce
  • udp://tracker.openbittorrent.com:80/announce
  • udp://9.rarbg.com:2710/announce