logo

The Drop 2014 720p HDCAM x264 Pimp4003

  • Category Movies
  • Type Divx/Xvid
  • Language English
  • Total size 1.7 GB
  • Uploaded By pimp4003
  • Downloads 370
  • Last checked 1 day ago
  • Date uploaded 2 years ago
  • Seeders 0
  • Leechers 0

The Drop

CrimeDrama

A crime-drama centered around a lost pit bull, a wannabe scam artist, and a killing.

Infohash : FE0CD902287B807665882B42083FA16B82B15D2C

FOR SCREENSHOTS AND FASTER DOWNLOAD SPEEDS PLEASE VISIT.....http://pimp4003.net/ THE SOURCE IS MMM.....8 MINUTES IS MISSING AT THE END....PRETTY GOOD VIDEO...VIDEO WAS TOO BRIGHT ADJUSTED THAT AND MADE IT BETTER....AUDIO NOT BAD...DID A BIT OF WORK....SOMETIMES IT MIGHT GO OUT OF SYNC IF IT DOES GO TO VLC,/TOOLS AND U CAN SYNC IT UP......I WILL HAVE A TSRIP IN A DAY OR SO .............ENJOY

PIMP THE ONE AND ONLY PIMPSTER.....PRESENTS





http://www.facebook.com/pimp4003

https://twitter.com/PIMP4003DOTNET



The Drop 2014 720p HDCAM x264 Pimp4003

http://www.imdb.com/title/tt1600196/

Bob Saginowski finds himself at the center of a robbery gone awry and entwined in an investigation that digs deep into the neighborhood's past where friends, families, and foes all work together to make a living - no matter the cost.

Director: Michaël R. Roskam

Writers: Dennis Lehane (screenplay), Dennis Lehane(short story "Animal Rescue")

Stars: Tom Hardy, Noomi Rapace, James Gandolfini |See full cast and crew »

Video

ID : 1

Format : MPEG-4 Visual

Format profile : [email protected]

Format settings, BVOP : No

Format settings, QPel : No

Format settings, GMC : No warppoints

Format settings, Matrix : Default (H.263)

Codec ID : 20

Duration : 1h 33mn

Bit rate : 2 392 Kbps

Width : 1 280 pixels

Height : 536 pixels

Display aspect ratio : 2.40:1

Frame rate mode : Variable

Frame rate : 59.940 fps

Minimum frame rate : 59.916 fps

Maximum frame rate : 60.157 fps

Color space : YUV

Chroma subsampling : 4:2:0

Bit depth : 8 bits

Scan type : Progressive

Compression mode : Lossy

Bits/(Pixel*Frame) : 0.058

Stream size : 1.57 GiB (93%)

Writing library : ZJMedia MPEG Encoder

Audio

ID : 2

Format : AAC

Format/Info : Advanced Audio Codec

Format profile : LC

Codec ID : 40

Duration : 1h 33mn

Bit rate mode : Variable

Bit rate : 160 Kbps

Channel(s) : 2 channels

Channel positions : Front: L R

Sampling rate : 48.0 KHz

Compression mode : Lossy

Stream size : 107 MiB (6%)

Files:

  • [WWW.PIMP4003.NET] The Drop 2014 720p HDCAM x264 Pimp4003.mp4 (1.7 GB)
  • Torrent Downloaded From Pimp4003.net.txt (0.1 KB)

There are currently no comments. Feel free to leave one :)

Code:

  • udp://open.demonii.com:1337/announce
  • http://inferno.demonoid.ph:3389/announce
  • http://tracker1.wasabii.com.tw:6969/announce
  • udp://open.demonii.com:1337/announce
  • udp://tracker.istole.it:80/announce
  • udp://tracker.publicbt.com:80/announce
  • udp://tracker.openbittorrent.com:80/announce
  • udp://9.rarbg.com:2710/announce