logo

Underworld Awakening(2012) 720p BRRip BluRay[Dual-Audio][Eng DD 5...

  • Category Movies
  • Type Dubs/Dual Audio
  • Language Hindi
  • Total size 1.0 GB
  • Uploaded By BUZZccd
  • Downloads 1750
  • Last checked 3 days ago
  • Date uploaded 2 years ago
  • Seeders 0
  • Leechers 0

Underworld: Awakening

ActionFantasyHorror

After being held in a coma-like state for fifteen years, vampire Selene learns that she has a fourteen-year-old vampire/Lycan hybrid daughter named Nissa, and when she finds her, they must stop BioCom from creating super Lycans that will kill them all.

Infohash : 49F87EEB6677FB4E1354B37CCD00BC6FBEBF7911

Thanks To SaM, Oziman & All Admins, Mod



General
Format: Matroska
Format version: Version 2
File size: 1.01 GiB
Duration: 1h 28mn
Overall bit rate: 1 629 Kbps
Movie name: Underworld Awakening(2012) 720p BRRip BluRay[Dual-Audio][Eng DD 5.1+Hindi DD 5.1]--=Blade_007=--
Encoded date: UTC 2014-09-27 12:41:51
Writing application: mkvmerge v5.0.1 ('Es ist Sommer') built on Oct 9 2011 11:55:43
Writing library: libebml v1.2.2 + libmatroska v1.3.0

Video
ID: 1
Format: AVC
Format/Info: Advanced Video Codec
Format profile: [email protected]
Format settings, CABAC: Yes
Format settings, ReFrames: 5 frames
Muxing mode : Header stripping
Codec ID: V_MPEG4/ISO/AVC
Duration: 1h 28mn
Bit rate: 978 Kbps
Width: 1 920 pixels
Height: 800 pixels
Display aspect ratio: 2.40:1
Frame rate mode: Constant
Frame rate: 23.976 fps
Color space: YUV
Chroma subsampling : 4:2:0
Bit depth: 8 bits
Scan type: Progressive
Bits/(Pixel*Frame): 0.027
Stream size: 606 MiB (59%)
Title: [Blade_007]
Writing library: x264 core 142 r2453kMod ea0ca51


Audio #1
ID : 2
Format: AC-3
Format/Info: Audio Coding 3
Mode extension: CM (complete main)
Format settings, Endianness: Big
Muxing mode : Header stripping
Codec ID : A_AC3
Duration: 1h 28mn
Bit rate mode: Constant
Bit rate: 320 Kbps
Channel(s): 6 channels
Channel positions: Front: L C R, Side: L R, LFE
Sampling rate: 48.0 KHz
Bit depth: 16 bits
Compression mod: Lossy
Stream size: 203 MiB (20%)
Title: [Blade_007]
Language : Hindi

Audio #2
ID: 3
Format: AC-3
Format/Info: Audio Coding 3
Mode extension: CM (complete main)
Format settings, Endianness: Big
Muxing mode: Header stripping
Codec ID : A_AC3
Duration: 1h 28mn
Bit rate mode: Constant
Bit rate: 320 Kbps
Channel(s): 6 channels
Channel positions: Front: L C R, Side: L R, LFE
Sampling rate: 48.0 KHz
Bit depth: 16 bits
Compression mode: Lossy
Stream size : 203 MiB (20%)
Title: [Blade_007]
Language: English

SCREEN SHOTS






EnCoDeD By:-Blade007

Files:

-=Movie=- [Blade_007]
  • Underworld Awakening(2012) 720p BRRip BluRay[Dual-Audio][Eng DD 5.1+Hindi DD 5.1][Blade_007].mkv (1.0 GB)
  • If You Like My Work!!.txt (0.2 KB)
-=Sample=- [Blade_007]
  • Sample -=Blade_007=-.mkv (12.6 MB)
-=Screen Shots=- [Blade_007]
  • vlcsnap-2014-09-14-11h45m13s132.png (2.4 MB)
  • vlcsnap-2014-09-14-11h45m45s200.png (1.9 MB)
  • vlcsnap-2014-09-14-11h44m33s122.png (1.6 MB)
  • vlcsnap-2014-09-14-11h45m56s68.png (1.3 MB)
  • vlcsnap-2014-09-14-11h44m44s101.png (1.2 MB)
  • Torrent Downloaded From ExtraTorrent.com.txt (0.3 KB)

There are currently no comments. Feel free to leave one :)

Code:

  • udp://11.rarbg.com:80/announce
  • udp://10.rarbg.com:80/announce
  • udp://12.rarbg.me:80/announce
  • udp://t1.pow7.com:80/announce
  • udp://tracker.pow7.com:80/announce
  • udp://ipv4.tracker.harry.lu:80/announce
  • udp://tracker.publicbt.com:80/announce
  • udp://tracker.openbittorrent.com:80/announce
  • udp://tracker.istole.it:80/announce
  • udp://open.demonii.com:1337/announce
  • udp://9.rarbg.com:2710/announce