logo

Captain America The Winter Soldier 2014 720p HDCAM V2 x264 Pimp40...

  • Category Movies
  • Type Divx/Xvid
  • Language English
  • Total size 2.0 GB
  • Uploaded By pimp4003
  • Downloads 6971
  • Last checked 22 hours ago
  • Date uploaded 2 years ago
  • Seeders 3
  • Leechers 0

Captain America: The Winter Soldier

ActionAdventureScience Fiction

After the cataclysmic events in New York with The Avengers, Steve Rogers, aka Captain America is living quietly in Washington, D.C. and trying to adjust to the modern world. But when a S.H.I.E.L.D. colleague comes under attack, Steve becomes embroiled in a web of intrigue that threatens to put the world at risk. Joining forces with the Black Widow, Captain America struggles to expose the ever-widening conspiracy while fighting off professional assassins sent to silence him at every turn. When the full scope of the villainous plot is revealed, Captain America and the Black Widow enlist the help of a new ally, the Falcon. However, they soon find themselves up against an unexpected and formidable enemy—the Winter Soldier.

Infohash : 99F0268A634E954D0FC2E3D30980C18741067048



THE SOURCE IS EVIL-DEAD...SO THIS IS FULL MOVIE WITH THE BEGINNING AND VIDEO AND AUDIO IS PRETTY GOOD...HAD TO DO SOME TOUCHES HERE AND THERE BUT OTHER THEN THAT IT SHOULD BE GOOD....UNTIL NEW SHOURCE...ENJOY

Captain America The Winter Soldier 2014 720p HDCAM V2 x264 Pimp4003

http://www.imdb.com/title/tt1843866/

Steve Rogers struggles to embrace his role in the modern world and battles a new threat from old history: the Soviet agent known as the Winter Soldier.

Directors: Anthony Russo, Joe Russo, 1 more credit »
Writers: Christopher Markus (screenplay), Stephen McFeely (screenplay), 3 more credits »
Stars: Chris Evans, Frank Grillo, Sebastian Stan | See full cast and crew »

Video
ID : 1
Format : AVC
Format/Info : Advanced Video Codec
Format profile : [email protected]
Format settings, CABAC : Yes
Format settings, ReFrames : 5 frames
Format settings, GOP : M=4, N=13
Codec ID : avc1
Codec ID/Info : Advanced Video Coding
Duration : 2h 3mn
Bit rate : 2 144 Kbps
Width : 1 280 pixels
Height : 544 pixels
Display aspect ratio : 2.35:1
Frame rate mode : Constant
Frame rate : 29.970 fps
Color space : YUV
Chroma subsampling : 4:2:0
Bit depth : 8 bits
Scan type : Progressive
Bits/(Pixel*Frame) : 0.103
Stream size : 1.85 GiB (93%)
Writing library : x264 core 110
Encoding settings : cabac=1 / ref=5 / deblock=1:0:0 / analyse=0x3:0x133 / me=hex / subme=8 / psy=1 / psy_rd=1.00:0.00 / mixed_ref=1 / me_range=16 / chroma_me=0 / trellis=1 / 8x8dct=1 / cqm=0 / deadzone=21,11 / fast_pskip=1 / chroma_qp_offset=-2 / threads=8 / sliced_threads=0 / nr=0 / decimate=1 / interlaced=0 / constrained_intra=0 / bframes=3 / b_pyramid=0 / b_adapt=0 / b_bias=0 / direct=3 / weightb=1 / open_gop=0 / weightp=0 / keyint=13 / keyint_min=7 / scenecut=0 / intra_refresh=0 / rc_lookahead=13 / rc=abr / mbtree=1 / bitrate=2144 / ratetol=1.0 / qcomp=0.00 / qpmin=10 / qpmax=51 / qpstep=4 / ip_ratio=1.41 / aq=1:1.00

Audio
ID : 2
Format : AAC
Format/Info : Advanced Audio Codec
Format profile : LC
Codec ID : 40
Duration : 2h 3mn
Bit rate mode : Variable
Bit rate : 165 Kbps
Channel(s) : 2 channels
Channel positions : Front: L R
Sampling rate : 48.0 KHz
Compression mode : Lossy
Stream size : 146 MiB (7%)

Files:

  • [WWW.PIMP4003.NET] Captain America The Winter Soldier 2014 720p HDCAM V2 x264 Pimp4003.mp4 (2.0 GB)
  • Torrent downloaded from at BTS.to.txt (0.1 KB)
  • Facebook.com Pimp4003.net.txt (0.1 KB)
  • Torrent Downloaded From Pimp4003.net.txt (0.1 KB)
  • Torrent downloaded from demonoid.ph.txt (0.0 KB)

Comments

Code:

  • http://inferno.demonoid.ph:3389/announce
  • udp://open.demonii.com:1337/announce
  • http://tracker1.wasabii.com.tw:6969/announce
  • http://tracker.pimp4003.net/announce
  • udp://tracker.istole.it:80/announce
  • udp://tracker.publicbt.com:80/announce
  • udp://tracker.openbittorrent.com:80/announce
  • udp://9.rarbg.com:2710/announce