logo

Genius (2018) 1080p WEBHD Untouched - DTOne

  • Category Movies
  • Type Bollywood
  • Language Hindi
  • Total size 3.1 GB
  • Uploaded By SaM
  • Downloads 818
  • Last checked 2 hours ago
  • Date uploaded 3 months ago
  • Seeders 19
  • Leechers 21

Genius

ThrillerAction

An orphan, with a brilliant mind, joins RAW and is burdened by the killing of his entire team. Until he doesn't avenge their death, he can't live in peace with his love. So, he hatches a genius plan.

Infohash : 9928C22BC89DD8B08090196DE6954F0867E54F43

https://www.ettv.be/




Genius (2018) 1080p WEBHD Untouched - DTOne




General
Complete name : Genius (2018) 1080p WEBHD Untouched - DTOne.mp4
Format : MPEG-4
Format profile : Base Media
Codec ID : isom (isom/iso2/avc1/mp41)
File size : 3.10 GiB
Duration : 2 h 25 min
Overall bit rate : 3 046 kb/s
Writing application : Lavf58.17.101

Video
ID : 1
Format : AVC
Format/Info : Advanced Video Codec
Format profile : [email protected]
Format settings : CABAC / 4 Ref Frames
Format settings, CABAC : Yes
Format settings, RefFrames : 4 frames
Codec ID : avc1
Codec ID/Info : Advanced Video Coding
Duration : 2 h 25 min
Bit rate : 3 000 kb/s
Width : 1 920 pixels
Height : 1 080 pixels
Display aspect ratio : 16:9
Frame rate mode : Constant
Frame rate : 25.000 FPS
Color space : YUV
Chroma subsampling : 4:2:0
Bit depth : 8 bits
Scan type : Progressive
Bits/(Pixel*Frame) : 0.058
Stream size : 3.02 GiB (98%)
Writing library : x264 core 152 r2854 e9a5903

Audio
ID : 2
Format : AAC
Format/Info : Advanced Audio Codec
Format profile : LC
Codec ID : mp4a-40-2
Duration : 2 h 25 min
Bit rate mode : Constant
Bit rate : 64.3 kb/s
Channel(s) : 2 channels
Channel positions : Front: L R
Sampling rate : 48.0 kHz
Frame rate : 46.875 FPS (1024 SPF)
Compression mode : Lossy
Stream size : 66.9 MiB (2%)
Default : Yes
Alternate group : 1








Quote:
[table][tr][td]- 1080p WEBHD!
- Enjoy DTOne Exclusive Release!
[/td]
[/tr]
[/table]

[font=tahoma]In case of re-seed on any torrent, please pm.[/font]
[font=tahoma]If you share this torrent anywhere, give credits to Lovepreet1 @ DTOne.[/font]

Files:

Genius (2018) 1080p WEBHD Untouched - DTOne
  • Genius (2018) 1080p WEBHD Untouched - DTOne.mp4 (3.1 GB)

There are currently no comments. Feel free to leave one :)

Code:

  • udp://tracker.pirateparty.gr:6969/announce
  • udp://tracker.coppersurfer.tk:6969/announce
  • udp://9.rarbg.to:2710/announce
  • udp://9.rarbg.me:2710/announce
  • udp://tracker.opentrackr.org:1337/announce
  • udp://open.demonii.si:1337/announce
  • udp://tracker.tiny-vps.com:6969/announce
  • udp://tracker.vanitycore.co:6969/announce
  • udp://explodie.org:6969/announce
  • udp://ipv4.tracker.harry.lu:80/announce
  • udp://tracker.torrent.eu.org:451
  • udp://tracker.open-internet.nl:6969/announce
  • udp://open.stealth.si:80/announce
  • udp://tracker.torrent.eu.org:451
  • udp://shadowshq.yi.org:6969/announce

X
Attention! Use a VPN when Accessing Free Content !
Your IP address is - Country:
Your Internet provider Tracks your Activity! Hide your IP ADDRESS with a VPN!
Bonus: Get Lag-Free Streams & No popups with any VPN Purchased !

Download Here