logo

18+ Mostly Sunny 2016 UNCENSORED English Movies HDRip XviD AAC Ne...

  • Category Movies
  • Type HD
  • Language English
  • Total size 705.1 MB
  • Uploaded By nehalpuja
  • Downloads 4187
  • Last checked 22 hours ago
  • Date uploaded 5 days ago
  • Seeders 36
  • Leechers 34

Infohash : 07987B597FB2079C11897AF5717970339AC7BE31

18+ Mostly Sunny 2016 UNCENSORED English Movies HDRip XviD AAC New Source with Sample ☻rDX☻

SCREEN SHOTS:



or

http://postimage.co.nr/2017/1/hospital/1.html

Format : Matroska
Format version : Version 4 / Version 2
File size : 698 MiB
Duration : 1 h 23 min
Overall bit rate mode : Constant
Overall bit rate : 1 172 kb/s
Movie name : 18+ Mostly Sunny 2016 UNCENSORED English Movies HDRip XviD AAC New Source ☻rDX☻

Video
ID : 2
Format : AVC
Format/Info : Advanced Video Codec
Format profile : [email protected]
Format settings, CABAC : Yes
Format settings, ReFrames : 2 frames
Format settings, GOP : M=1, N=12
Codec ID : V_MPEG4/ISO/AVC
Duration : 1 h 23 min
Bit rate mode : Constant
Bit rate : 789 kb/s
Width : 720 pixels
Height : 400 pixels
Display aspect ratio : 16:9
Frame rate mode : Constant
Frame rate : 23.976 (24000/1001) FPS
Color space : YUV
Chroma subsampling : 4:2:0
Bit depth : 8 bits
Scan type : Progressive
Bits/(Pixel*Frame) : 0.114
Stream size : 455 MiB (65%)
Title : ☻rDX☻
Default : Yes
Forced : No

Audio
ID : 1
Format : AC-3
Format/Info : Audio Coding 3
Mode extension : CM (complete main)
Format settings, Endianness : Big
Codec ID : A_AC3
Duration : 1 h 23 min
Bit rate mode : Constant
Bit rate : 384 kb/s
Channel(s) : 6 channels
Channel positions : Front: L C R, Side: L R, LFE
Sampling rate : 48.0 kHz
Frame rate : 31.250 FPS (1536 spf)
Bit depth : 16 bits
Compression mode : Lossy
Stream size : 229 MiB (33%)
Title : ☻rDX☻
Default : Yes
Forced : No



IMDB : http://www.imdb.com/title/tt5935072/

Files:

18+ Mostly Sunny 2016 UNCENSORED English Movies HDRip XviD AAC New Source with Sample ☻rDX☻
  • Sample ~ 18+ Mostly Sunny 2016 UNCENSORED English Movies HDRip XviD AAC New Source ☻rDX☻.mkv (7.0 MB)
  • 18+ Mostly Sunny 2016 UNCENSORED English Movies HDRip XviD AAC New Source ☻rDX☻.mkv (698.1 MB)

There are currently no comments. Feel free to leave one :)

Code:

  • udp://tracker.coppersurfer.tk:6969/announce
  • udp://tracker.openbittorrent.com:80/announce
  • udp://glotorrents.pw:6969/announce
  • udp://tracker.publicbt.com:80/announce
  • http://retracker.krs-ix.ru/announce
  • udp://tracker.pomf.se:80/announce
  • udp://explodie.org:6969/announce
  • http://mgtracker.org:2710/announce
  • http://tracker.aletorrenty.pl:2710/announce
  • http://tracker.btcake.com/announce
  • udp://tracker.openbittorrent.com:80/announce
  • udp://tracker.leechers-paradise.org:6969/announce
  • udp://coppersurfer.tk:6969/announce