logo

Naam Hai Akira (2016) 720p Blu-Ray x264 AAC 5.1 ESub -DDR

  • Category Movies
  • Type HD
  • Language Hindi
  • Total size 1.6 GB
  • Uploaded By SaM
  • Downloads 597
  • Last checked 2 months ago
  • Date uploaded 2 months ago
  • Seeders 51
  • Leechers 47

Akira

CrimeDramaThriller

Akira (English: Graceful Strength) is an upcoming Hindi action drama film directed and produced by AR Murugadoss. It is the remake of Tamil film Mouna Guru (2011) and features Sonakshi Sinha in lead role.

Infohash : 5EB4BEFF2D78E93E10278678B113B6CE3B8E6C90





7200p Blu-Ray Rip x264

Hindi AAC 5.1 Audio

English Subs

SCREENSHOTS


SPECS


Source: Blu-ray BD50 @ HDT

Format : Matroska
File size : 1.62 GiB
Duration : 2 h 16 min
Overall bit rate : 1 696 kb/s

Video
Format : AVC
Format/Info : Advanced Video Codec
Format profile : [email protected]
Format settings, CABAC : Yes
Format settings, ReFrames : 12 frames
Codec ID : V_MPEG4/ISO/AVC
Duration : 2 h 16 min
Bit rate : 1 500 kb/s
Width : 1 280 pixels
Height : 534 pixels
Display aspect ratio : 2.40:1
Frame rate mode : Constant
Frame rate : 24.000 FPS
Color space : YUV
Chroma subsampling : 4:2:0
Bit depth : 8 bits
Scan type : Progressive
Bits/(Pixel*Frame) : 0.091
Stream size : 1.43 GiB (88%)
Default : Yes
Forced : No
Color range : Limited
Color primaries : BT.709
Transfer characteristics : BT.709
Matrix coefficients : BT.709

Audio #1
Format : AAC
Format/Info : Advanced Audio Codec
Format profile : LC
Codec ID : A_AAC
Duration : 2 h 16 min
Bit rate : 192 kb/s
Channel(s) : 6 channels
Channel positions : Front: L C R, Side: L R, LFE
Sampling rate : 48.0 kHz
Frame rate : 46.875 FPS (1024 spf)
Compression mode : Lossy
Delay relative to video : 9 ms
Stream size : 188 MiB (11%)
Language : Hindi
Default : Yes
Forced : No

SAMPLE Included



A DDR Exclusive Encode



Files:

Akira (2016) 720p Blu-Ray x264 AAC 5.1 ESub -DDR
  • Akira (2016) 720p Blu-Ray x274 AAC 5.1 ESub -DDR.mkv (1.6 GB)
  • sample-Akira (2016) 720p Blu-Ray x274 AAC 5.1 ESub -DDR.mkv (4.6 MB)
  • A DDR Release !!!.txt (0.3 KB)

There are currently no comments. Feel free to leave one :)

Code:

  • udp://tracker.coppersurfer.tk:6969/announce
  • udp://tracker.zer0day.to:1337/announce
  • udp://tracker.ilibr.org:6969/announce
  • udp://tracker.leechers-paradise.org:6969/announce
  • udp://torrent.gresille.org:80/announce
  • udp://tracker.ilibr.org:80/announce
  • udp://p4p.arenabg.com:1337/announce
  • udp://p4p.arenabg.ch:1337/announce
  • udp://tracker.leechers-paradise.org:6969/announce
  • udp://tracker.coppersurfer.tk:6969/announce
  • udp://9.rarbg.me:2710/announce
  • udp://tracker.internetwarriors.net:1337/announce
  • udp://tracker.opentrackr.org:1337/announce
  • udp://eddie4.nl:6969/announce
  • udp://9.rarbg.to:2710/announce