logo

INFERNO (2016) Multi 1080p Blu-Ray x264 DTSHD 5.1 -DDR

  • Category Movies
  • Type Dubs/Dual Audio
  • Language English
  • Total size 10.6 GB
  • Uploaded By SaM
  • Downloads 300
  • Last checked 2 days ago
  • Date uploaded 1 week ago
  • Seeders 163
  • Leechers 205

Inferno

ActionCrimeMysteryThriller

After waking up in a hospital with amnesia, professor Robert Langdon and a doctor must race against time to foil a deadly global plot.

Infohash : A35A274617C883E9633CD715962837BB042095CD




HQ 1080p Blu-Ray Rip x264

English DTSHD-MA 5.1 Audio
French MP3 Stereo Audio

English Subs

SCREENSHOTS


SPECS


Source: Blu-ray
Note: French Audio is from DVD

Format                                   : Matroska
File size                                : 10.6 GiB
Duration                                 : 2 h 1 min
Overall bit rate                         : 12.4 Mb/s

Video
Format                                   : AVC
Format/Info                              : Advanced Video Codec
Format profile                           : [email protected]
Format settings, CABAC                   : Yes
Format settings, ReFrames                : 5 frames
Codec ID                                 : V_MPEG4/ISO/AVC
Duration                                 : 2 h 1 min
Bit rate                                 : 10 000 kb/s
Width                                    : 1 920 pixels
Height                                   : 1 036 pixels
Display aspect ratio                     : 1.85:1
Frame rate mode                          : Constant
Frame rate                               : 23.976 (24000/1001) FPS
Color space                              : YUV
Chroma subsampling                       : 4:2:0
Bit depth                                : 8 bits
Scan type                                : Progressive
Bits/(Pixel*Frame)                       : 0.210
Stream size                              : 8.49 GiB (80%)
Default                                  : Yes
Forced                                   : No
Color range                              : Limited
Color primaries                          : BT.709
Transfer characteristics                 : BT.709
Matrix coefficients                      : BT.709

Audio #1
Format                                   : DTS
Format/Info                              : Digital Theater Systems
Format profile                           : MA / Core
Mode                                     : 16
Format settings, Endianness              : Big
Codec ID                                 : A_DTS
Duration                                 : 2 h 1 min
Bit rate mode                            : Variable / Constant
Bit rate                                 : 2 269 kb/s / 1 509 kb/s
Channel(s)                               : 6 channels
Channel positions                        : Front: L C R, Side: L R, LFE
Sampling rate                            : 48.0 kHz
Frame rate                               : 93.750 FPS (512 spf)
Bit depth                                : 16 bits
Compression mode                         : Lossless / Lossy
Stream size                              : 1.93 GiB (18%)
Language                                 : English
Default                                  : No
Forced                                   : No

Audio #2
ID                                       : 5
Format                                   : MPEG Audio
Format version                           : Version 1
Format profile                           : Layer 3
Mode                                     : Joint stereo
Mode extension                           : MS Stereo
Codec ID                                 : A_MPEG/L3
Codec ID/Hint                            : MP3
Duration                                 : 2 h 1 min
Bit rate mode                            : Constant
Bit rate                                 : 128 kb/s
Channel(s)                               : 2 channels
Sampling rate                            : 44.1 kHz
Frame rate                               : 38.281 FPS (1152 spf)
Compression mode                         : Lossy
Stream size                              : 111 MiB (1%)
Writing library                          : LAME3.99r
Encoding settings                        : -m j -V 4 -q 2 -lowpass 17 -b 128
Language                                 : French
Default                                  : Yes
Forced                                   : No


SAMPLE Included



A DDR Exclusive Encode




Files:

INFERNO (2016) Multi 1080p Blu-Ray x264 DTSHD 5.1 -DDR
  • INFERNO (2016) Multi 1080p Blu-Ray x264 DTSHD 5.1 -DDR.mkv (10.6 GB)
  • sample-INFERNO (2016) Multi 1080p Blu-Ray x264 DTSHD 5.1 -DDR.mkv (37.9 MB)
  • A DDR Release !!!.txt (0.3 KB)
  • Torrent downloaded from ExtraTorrent.cc.txt (0.0 KB)

There are currently no comments. Feel free to leave one :)

Code:

  • udp://tracker.coppersurfer.tk:6969/announce
  • udp://tracker.zer0day.to:1337/announce
  • udp://tracker.ilibr.org:6969/announce
  • udp://tracker.leechers-paradise.org:6969/announce
  • udp://torrent.gresille.org:80/announce
  • udp://tracker.ilibr.org:80/announce
  • udp://p4p.arenabg.com:1337/announce
  • udp://p4p.arenabg.ch:1337/announce
  • udp://tracker.leechers-paradise.org:6969/announce
  • udp://tracker.coppersurfer.tk:6969/announce
  • udp://9.rarbg.me:2710/announce
  • udp://tracker.internetwarriors.net:1337/announce
  • udp://tracker.opentrackr.org:1337/announce
  • udp://eddie4.nl:6969/announce
  • udp://9.rarbg.to:2710/announce