logo

Dear Zindagi 2016 Hindi 720p DvDRip x264 AAC 5.1 - Hon3y

  • Category Movies
  • Type h.264/x264
  • Language Hindi
  • Total size 1.5 GB
  • Uploaded By honey8ee
  • Downloads 35513
  • Last checked 20 hours ago
  • Date uploaded 5 months ago
  • Seeders 169
  • Leechers 19

Dear Zindagi

DramaRomance

An unconventional thinker helps a budding cinematographer gain a new perspective on life.

Infohash : 80D5AFED4F3321F906D7CFA7D864CE03E58C4F8D




Dear Zindagi 2016 Hindi 720p DvDRip x264 AAC 5.1 - Hon3y


Format : Matroska
Format version : Version 4 / Version 2
File size : 1.51 GiB
Duration : 2h 30mn
Overall bit rate : 1 442 Kbps
Encoded By : [email protected] @ Hon3yHD


Video
ID : 1
Format : AVC
Format/Info : Advanced Video Codec
Format profile : [email protected]
Format settings, CABAC : Yes
Format settings, ReFrames : 8 frames
Codec ID : V_MPEG4/ISO/AVC
Duration : 2h 30mn
Bit rate : 1 250 Kbps
Width : 1 280 pixels
Height : 544 pixels
Display aspect ratio : 2.35:1
Frame rate mode : Constant
Frame rate : 23.976 (24000/1001) fps
Language : English
Default : Yes
Forced : No

Audio
ID : 2
Format : AAC
Format/Info : Advanced Audio Codec
Format profile : LC
Codec ID : A_AAC
Duration : 2h 30mn
Bit rate : 192 Kbps
Channel(s) : 6 channels
Channel positions : Front: L C R, Side: L R, LFE
Sampling rate : 48.0 KHz
Frame rate : 46.875 fps (1024 spf)
Compression mode : Lossy
Delay relative to video : 9ms
Stream size : 204 MiB (13%)
Title : [email protected]
Language : Hindi
Default : Yes
Forced : No

Text
ID : 3
Format : UTF-8
Codec ID : S_TEXT/UTF8
Codec ID/Info : UTF-8 Plain Text
Duration : 2h 25mn
Bit rate : 55 bps
Count of elements : 2028
Stream size : 59.3 KiB (0%)
Default : Yes
Forced : No

Menu
00:00:00.000 : en:Chapter 01
00:01:51.968 : en:Chapter 02
00:09:20.836 : en:Chapter 03
00:19:56.470 : en:Chapter 04
00:21:34.570 : en:Chapter 05
00:36:13.837 : en:Chapter 06
00:39:58.970 : en:Chapter 07
00:47:00.037 : en:Chapter 08
01:04:29.804 : en:Chapter 09
01:12:46.371 : en:Chapter 10
01:21:14.072 : en:Chapter 11
01:24:01.006 : en:Chapter 12
01:30:56.039 : en:Chapter 13
01:32:32.907 : en:Chapter 14
01:34:00.074 : en:Chapter 15
01:45:03.008 : en:Chapter 16
01:52:56.876 : en:Chapter 17
02:04:49.543 : en:Chapter 18
02:09:01.377 : en:Chapter 19
02:13:03.044 : en:Chapter 20
02:21:38.745 : en:Chapter 21
02:26:24.479 : en:Chapter 22















Files:

Dear Zindagi 2016 Hindi 720p DvDRip x264 AAC 5.1 - Hon3y
  • Dear Zindagi 2016 Hindi 720p DvDRip x264 AAC 5.1 - Hon3y.mkv (1.5 GB)
  • Dear Zindagi 2016 Hindi 720p DvDRip x264 AAC 5.1 - Hon3y.srt (139.4 KB)
  • For Direct Download Visit www.ddlcrazy.com.txt (0.0 KB)
  • Hon3yHD.com is Open for Limited Signup.txt (0.0 KB)

Comments

Code:

  • udp://tracker.coppersurfer.tk:6969/announce
  • udp://tracker.coppersurfer.tk:6969
  • udp://tracker.ilibr.org:6969/announce
  • udp://tracker.ilibr.org:80/announce
  • udp://tracker.opentrackr.org:1337/announce
  • udp://tracker.zer0day.to:1337/announce
  • udp://eddie4.nl:6969/announce
  • udp://tracker.leechers-paradise.org:6969/announce
  • udp://shadowshq.yi.org:6969/announce
  • udp://p4p.arenabg.ch:1337/announce
  • udp://p4p.arenabg.com:1337/announce
  • udp://ipv4.tracker.harry.lu:80/announce
  • udp://9.rarbg.to:2770/announce
  • udp://9.rarbg.me:2800/announce
  • udp://explodie.org:6969/announce