logo

Dangal (2016) Hindi New HD DVDScr x264 - DDR

  • Category Movies
  • Type h.264/x264
  • Language Hindi
  • Total size 984.1 MB
  • Uploaded By extremerules
  • Downloads 16470
  • Last checked 1 hour ago
  • Date uploaded 2 weeks ago
  • Seeders 186
  • Leechers 20

Dangal

DramaHistory

The film stars Aamir Khan portraying the role of Mahavir Singh Phogat, who taught wrestling to his daughters Babita Kumari and Geeta Phogat. Geeta Phogat was India's first female wrestler to win at the 2010 Commonwealth Games, where she won the gold medal (55 kg) while her sister Babita Kumari won the silver (51 kg).

Infohash : 4A3AF4A9C7AFA17DE0C501D5385416B00DC2AFE1



General

Format : MPEG-4
Format profile : Base Media / Version 2
Codec ID : mp42 (isom/iso2/avc1/mp41)
File size : 984 MiB
Duration : 2h 38mn
Overall bit rate mode : Variable
Overall bit rate : 867 Kbps
Encoded date : UTC 2016-12-30 20:26:42
Tagged date : UTC 2016-12-30 20:26:42

Video
ID : 1
Format : AVC
Format/Info : Advanced Video Codec
Format profile : [email protected]
Format settings, CABAC : Yes
Format settings, ReFrames : 4 frames
Codec ID : avc1
Codec ID/Info : Advanced Video Coding
Duration : 2h 38mn
Bit rate : 700 Kbps
Width : 712 pixels
Height : 288 pixels
Display aspect ratio : 2.472
Frame rate mode : Variable
Frame rate : 23.976 fps
Minimum frame rate : 23.810 fps
Maximum frame rate : 30.303 fps
Color space : YUV
Chroma subsampling : 4:2:0
Bit depth : 8 bits
Scan type : Progressive
Bits/(Pixel*Frame) : 0.142
Stream size : 795 MiB (81%)
Writing library : x264 core 142 r2479 dd79a61
Encoded date : UTC 2016-12-30 20:26:42
Tagged date : UTC 2016-12-30 20:26:42
Color range : Limited
Color primaries : BT.601 NTSC
Transfer characteristics : BT.709
Matrix coefficients : BT.601

Audio
ID : 2
Format : AAC
Format/Info : Advanced Audio Codec
Format profile : LC
Codec ID : 40
Duration : 2h 38mn
Bit rate mode : Variable
Bit rate : 160 Kbps
Channel(s) : 2 channels
Channel positions : Front: L R
Sampling rate : 48.0 KHz
Frame rate : 46.875 fps (1024 spf)
Compression mode : Lossy
Stream size : 181 MiB (18%)
Title : Stereo / Stereo
Language : Hindi
Default : Yes
Alternate group : 1
Encoded date : UTC 2016-12-30 20:26:42
Tagged date : UTC 2016-12-30 20:26:42










Files:

Dangal (2016) Hindi New HD DVDScr x264 - DDR
  • Dangal (2016) Hindi New HD DVDScr x264 - DDR.mp4 (984.1 MB)
  • sponsored_torrent.txt (0.0 KB)

Comments

Code:

  • udp://tracker.opentrackr.org:1337/announce
  • udp://tracker.trackerfix.com:80/announce
  • udp://9.rarbg.to:2710/announce
  • udp://9.rarbg.me:2710/announce
  • udp://tracker.ilibr.org:6969/announce
  • udp://tracker.ilibr.org:80/announce
  • udp://tracker.coppersurfer.tk:6969/announce
  • udp://tracker.coppersurfer.tk:6969
  • udp://p4p.arenabg.com:1337/announce
  • udp://p4p.arenabg.ch:1337/announce
  • udp://eddie4.nl:6969/announce
  • udp://tracker.leechers-paradise.org:6969/announce
  • udp://explodie.org:6969/announce
  • udp://tracker.zer0day.to:1337/announce
  • udp://shadowshq.yi.org:6969/announce