logo

Doctor Who 2005 S10E00 Christmas Special 720p HDTV x264-2HD

  • Category TV
  • Type HD
  • Language English
  • Total size 503.5 MB
  • Uploaded By extremerules
  • Downloads 516
  • Last checked 1 hour ago
  • Date uploaded 3 months ago
  • Seeders 11
  • Leechers 0

Infohash : 156410566BADA99AE2A605AB9291107ED1F825AB



General
Format : MPEG-4
Format profile : Base Media / Version 2
Codec ID : mp42 (isom/iso2/avc1/mp41)
File size : 503 MiB
Duration : 1h 0mn
Overall bit rate mode : Variable
Overall bit rate : 1 173 Kbps
Encoded date : UTC 2016-12-25 19:13:17
Tagged date : UTC 2016-12-25 19:13:17
Writing application : HandBrake 0.10.5 2016021100

Video
ID : 1
Format : AVC
Format/Info : Advanced Video Codec
Format profile : [email protected]
Format settings, CABAC : Yes
Format settings, ReFrames : 4 frames
Codec ID : avc1
Codec ID/Info : Advanced Video Coding
Duration : 1h 0mn
Bit rate : 1 000 Kbps
Width : 1 280 pixels
Height : 720 pixels
Display aspect ratio : 16:9
Frame rate mode : Constant
Frame rate : 25.000 fps
Color space : YUV
Chroma subsampling : 4:2:0
Bit depth : 8 bits
Scan type : Progressive
Bits/(Pixel*Frame) : 0.043
Stream size : 432 MiB (86%)
Writing library : x264 core 142 r2479 dd79a61
Encoded date : UTC 2016-12-25 19:13:17
Tagged date : UTC 2016-12-25 19:13:17
Color range : Limited
Color primaries : BT.709
Transfer characteristics : BT.709
Matrix coefficients : BT.709

Audio
ID : 2
Format : AAC
Format/Info : Advanced Audio Codec
Format profile : LC
Codec ID : 40
Duration : 1h 0mn
Bit rate mode : Variable
Bit rate : 160 Kbps
Channel(s) : 2 channels
Channel positions : Front: L R
Sampling rate : 48.0 KHz
Frame rate : 46.875 fps (1024 spf)
Compression mode : Lossy
Stream size : 68.8 MiB (14%)
Title : Stereo / Stereo
Default : Yes
Alternate group : 1
Encoded date : UTC 2016-12-25 19:13:17
Tagged date : UTC 2016-12-25 19:13:17

Files:

Doctor Who 2005 S10E00 Christmas Special 720p HDTV x264-2HD
  • Doctor Who 2005 S10E00 Christmas Special 720p HDTV x264-2HD.mp4 (503.5 MB)
  • sponsored_torrent.txt (0.0 KB)

Comments

Code:

  • udp://tracker.opentrackr.org:1337/announce
  • udp://tracker.trackerfix.com:80/announce
  • udp://9.rarbg.to:2710/announce
  • udp://9.rarbg.me:2710/announce
  • udp://tracker.ilibr.org:6969/announce
  • udp://tracker.ilibr.org:80/announce
  • udp://tracker.coppersurfer.tk:6969/announce
  • udp://tracker.coppersurfer.tk:6969
  • udp://p4p.arenabg.com:1337/announce
  • udp://p4p.arenabg.ch:1337/announce
  • udp://eddie4.nl:6969/announce
  • udp://tracker.leechers-paradise.org:6969/announce
  • udp://explodie.org:6969/announce
  • udp://tracker.zer0day.to:1337/announce
  • udp://shadowshq.yi.org:6969/announce