logo

Dangal (2016) Hindi New DVDScr XviD - DDR

  • Category Movies
  • Type Divx/Xvid
  • Language Hindi
  • Total size 697.4 MB
  • Uploaded By extremerules
  • Downloads 6409
  • Last checked 12 hours ago
  • Date uploaded 5 months ago
  • Seeders 3
  • Leechers 3

Dangal

DramaHistory

The film stars Aamir Khan portraying the role of Mahavir Singh Phogat, who taught wrestling to his daughters Babita Kumari and Geeta Phogat. Geeta Phogat was India's first female wrestler to win at the 2010 Commonwealth Games, where she won the gold medal (55 kg) while her sister Babita Kumari won the silver (51 kg).

Infohash : BD2A9AD69CD8A1B319B64877C6BF51E1A35B0F0A



Format : AVC
Format/Info : Advanced Video Codec
Format profile : [email protected]
Format settings, CABAC : Yes
Format settings, ReFrames : 16 frames
Codec ID : V_MPEG4/ISO/AVC
Duration : 2 h 32 min
Bit rate mode : Variable
Bit rate : 573 kb/s
Maximum bit rate : 62.5 Mb/s
Width : 640 pixels
Height : 240 pixels
Display aspect ratio : 2.667
Frame rate mode : Constant
Frame rate : 25.000 FPS
Color space : YUV
Chroma subsampling : 4:2:0
Bit depth : 8 bits
Scan type : Progressive
Bits/(Pixel*Frame) : 0.149
Stream size : 625 MiB (90%)
Writing library : x264 core 148 r2744 b97ae06
Default : Yes
Forced : No
Color range : Limited
Color primaries : BT.601 NTSC
Transfer characteristics : BT.601
Matrix coefficients : BT.601

Audio #1
Format : AAC
Format/Info : Advanced Audio Codec
Format profile : LC
Codec ID : A_AAC
Duration : 2 h 32 min
Bit rate : 64.0 kb/s
Channel(s) : 2 channels
Channel positions : Front: L R
Sampling rate : 48.0 kHz
Frame rate : 46.875 FPS (1024 spf)
Compression mode : Lossy
Delay relative to video : 9 ms
Stream size : 69.8 MiB (10%)
Language : Hindi
Default : Yes
Forced : No

Files:

Dangal (2016) Hindi New DVDScr XviD - DDR
  • Dangal (2016) Hindi New DVDScr XviD - DDR.mkv (697.4 MB)
  • sponsored_torrent.txt (0.0 KB)

Comments

Code:

  • udp://tracker.opentrackr.org:1337/announce
  • udp://tracker.trackerfix.com:80/announce
  • udp://9.rarbg.to:2710/announce
  • udp://9.rarbg.me:2710/announce
  • udp://tracker.ilibr.org:6969/announce
  • udp://tracker.ilibr.org:80/announce
  • udp://tracker.coppersurfer.tk:6969/announce
  • udp://tracker.coppersurfer.tk:6969
  • udp://p4p.arenabg.com:1337/announce
  • udp://p4p.arenabg.ch:1337/announce
  • udp://eddie4.nl:6969/announce
  • udp://tracker.leechers-paradise.org:6969/announce
  • udp://explodie.org:6969/announce
  • udp://tracker.zer0day.to:1337/announce
  • udp://shadowshq.yi.org:6969/announce