logo

The VVitch A New England Folktale [2015] Blu-Ray 720p x264 Dual A...

  • Category Movies
  • Type Dubs/Dual Audio
  • Language Hindi
  • Total size 1.5 GB
  • Uploaded By honey8ee
  • Downloads 2945
  • Last checked 1 day ago
  • Date uploaded 6 months ago
  • Seeders 9
  • Leechers 2

The Witch

Horror

New England in the 1630s: William and Katherine lead a devout Christian life with five children, homesteading on the edge of an impassable wilderness. When their newborn son vanishes and crops fail, the family turns on one another. Beyond their worst fears, a supernatural evil lurks in the nearby wood.

Infohash : 497A76B0AD7327DD614443BD46816615EE5F2944



The VVitch A New England Folktale [2015] Blu-Ray 720p x264 Dual Audio [Eng 5.1+Hindi 5.1][Msubs]-Hon3y [Exclusive]


Format                                   : Matroska
Format version                           : Version 4 / Version 2
File size                                : 1.46 GiB
Duration                                 : 1h 32mn
Overall bit rate                         : 2 254 Kbps


Encoded By : [email protected] @ Hon3yHD


Video
ID                                       : 1
Format                                   : AVC
Format/Info                              : Advanced Video Codec
Format profile                           : [email protected]
Format settings, CABAC                   : Yes
Format settings, ReFrames                : 9 frames
Codec ID                                 : V_MPEG4/ISO/AVC
Duration                                 : 1h 32mn
Bit rate                                 : 1 853 Kbps
Width                                    : 1 200 pixels
Height                                   : 720 pixels
Display aspect ratio                     : 5:3
Frame rate mode                          : Constant
Frame rate                               : 23.976 (24000/1001) fps
Color space                              : YUV
Chroma subsampling                       : 4:2:0
Bit depth                                : 8 bits
Scan type                                : Progressive
Bits/(Pixel*Frame)                       : 0.089
Stream size                              : 1.20 GiB (82%)
Title                                    : [email protected] @ Hon3yHD
Writing library                          : x264 core 148 r2638 7599210
Language                                 : English
Default                                  : Yes
Forced                                   : No
Color range                              : Limited
Color primaries                          : BT.709
Transfer characteristics                 : BT.709
Matrix coefficients                      : BT.709

Audio #1
ID                                       : 2
Format                                   : AAC
Format/Info                              : Advanced Audio Codec
Format profile                           : LC
Codec ID                                 : A_AAC
Duration                                 : 1h 32mn
Bit rate                                 : 192 Kbps
Channel(s)                               : 6 channels
Channel positions                        : Front: L C R, Side: L R, LFE
Sampling rate                            : 48.0 KHz
Frame rate                               : 46.875 fps (1024 spf)
Compression mode                         : Lossy
Delay relative to video                  : 9ms
Stream size                              : 127 MiB (8%)
Title                                    : [email protected] @ Hon3yHD
Language                                 : Hindi
Default                                  : Yes
Forced                                   : No

Audio #2
ID                                       : 3
Format                                   : AAC
Format/Info                              : Advanced Audio Codec
Format profile                           : LC
Codec ID                                 : A_AAC
Duration                                 : 1h 32mn
Bit rate                                 : 192 Kbps
Channel(s)                               : 6 channels
Channel positions                        : Front: L C R, Side: L R, LFE
Sampling rate                            : 48.0 KHz
Frame rate                               : 46.875 fps (1024 spf)
Compression mode                         : Lossy
Delay relative to video                  : 9ms
Stream size                              : 127 MiB (8%)
Title                                    : [email protected] @ Hon3yHD
Language                                 : English
Default                                  : No
Forced                                   : No

Text #1
ID                                       : 4
Format                                   : PGS
Muxing mode                              : zlib
Codec ID                                 : S_HDMV/PGS
Codec ID/Info                            : Picture based subtitle format used on BDs/HD-DVDs
Duration                                 : 1h 26mn
Bit rate                                 : 9 660 bps
Count of elements                        : 2113
Stream size                              : 6.00 MiB (0%)
Title                                    : [email protected] @ Hon3yHD
Language                                 : English
Default                                  : Yes
Forced                                   : No

Text #2
ID                                       : 5
Format                                   : PGS
Muxing mode                              : zlib
Codec ID                                 : S_HDMV/PGS
Codec ID/Info                            : Picture based subtitle format used on BDs/HD-DVDs
Duration                                 : 1h 31mn
Bit rate                                 : 7 137 bps
Count of elements                        : 1768
Stream size                              : 4.65 MiB (0%)
Title                                    : [email protected] @ Hon3yHD
Language                                 : Hindi
Default                                  : No
Forced                                   : No






I am on FaceBook, Post Your suggestion, and find upcoming Releases at FB Page so keep in touch !!!



Files:

Screens
  • 11.jpg (253.4 KB)
  • 8.jpg (178.2 KB)
  • 10.jpg (150.4 KB)
  • 13.jpg (149.3 KB)
  • 5.jpg (142.4 KB)
  • 12.jpg (142.2 KB)
  • 3.jpg (135.1 KB)
  • 4.jpg (133.8 KB)
  • 7.jpg (130.9 KB)
  • 9.jpg (123.8 KB)
  • 6.jpg (107.8 KB)
  • 1.jpg (88.6 KB)
  • 14.jpg (74.2 KB)
  • 2.jpg (73.8 KB)
  • The VVitch A New England Folktale [2015] Blu-Ray 720p x264 Dual Audio [Eng 5.1+Hindi 5.1][Msubs]-Hon3y [Exclusive].mkv (1.5 GB)
  • Torrent Seed By www.cyber-planet.in.txt (0.1 KB)
  • Hon3yHD.com.txt (0.0 KB)

There are currently no comments. Feel free to leave one :)

Code:

  • udp://tracker.coppersurfer.tk:6969/announce
  • udp://tracker.coppersurfer.tk:6969
  • udp://tracker.opentrackr.org:1337/announce
  • udp://tracker.aletorrenty.pl:2710/announce
  • http://tracker.tfile.me/announce
  • udp://thetracker.org:80/announce
  • udp://tracker.sktorrent.net:6969/announce
  • udp://9.rarbg.me:2710/announce
  • udp://9.rarbg.to:2710/announce
  • udp://zer0day.ch:1337/announce
  • udp://tracker.leechers-paradise.org:6969/announce
  • udp://explodie.org:6969/announce
  • udp://p4p.arenabg.com:1337
  • udp://torrent.gresille.org:80/announce