logo

The Double 2011 720p BluRay x264 [Dual-Audio][Hindi 2.0(Pak Dub)]...

  • Category Movies
  • Type Dubs/Dual Audio
  • Language Hindi
  • Total size 1.1 GB
  • Uploaded By honey8ee
  • Downloads 16822
  • Last checked 6 hours ago
  • Date uploaded 7 months ago
  • Seeders 8
  • Leechers 1

The Double

ActionCrimeDramaMysteryThriller

The mysterious murder of a US senator bearing the distinctive trademark of the legendary Soviet assassin "Cassius," forces Paul Shepherdson (Richard Gere), a retired CIA operative, to team with rookie FBI agent, Ben Geary (Topher Grace), to solve the crime. Having spent his career chasing Cassius, Shepherdson is convinced his nemesis is long dead, but is pushed to take on the case by his former supervisor, Tom Highland (Martin Sheen). Meanwhile, Agent Geary, who wrote his Master's thesis on Shepherdson's pursuit of the Soviet killer, is certain that Cassius has resurfaced. As Shepherdson and Geary work their way through crimes both past and present, they discover that Cassius may not be the person they always thought him to be, forcing both to re-examine everything and everyone around them.

Infohash : 13B726DD35D23B88B7EE0C9BE34174033BDA09DF



The Double 2011 720p BluRay x264 [Dual-Audio][Hindi 2.0(Pak Dub)][English 5.1]...Hon3y --[Exclusive]--

Format : Matroska
Format version : Version 4 / Version 2
File size : 1.10 GiB
Duration : 1h 38mn
Overall bit rate : 1 598 Kbps
Movie name : Hon3yHD

Video
ID : 1
Format : AVC
Format/Info : Advanced Video Codec
Format profile : [email protected]
Format settings, CABAC : Yes
Format settings, ReFrames : 8 frames
Codec ID : V_MPEG4/ISO/AVC
Duration : 1h 38mn
Bit rate : 1 212 Kbps
Width : 1 280 pixels
Height : 544 pixels
Display aspect ratio : 2.35:1
Frame rate mode : Constant
Frame rate : 23.976 (24000/1001) fps
Color space : YUV
Chroma subsampling : 4:2:0
Bit depth : 8 bits
Scan type : Progressive
Bits/(Pixel*Frame) : 0.073
Stream size : 853 MiB (76%)
Title : R3al_Warrior...Hon3yHD


Audio #1
ID : 2
Format : AAC
Format/Info : Advanced Audio Codec
Format profile : LC
Codec ID : A_AAC
Duration : 1h 38mn
Bit rate : 192 Kbps
Channel(s) : 2 channels
Channel positions : Front: L R
Sampling rate : 48.0 KHz
Frame rate : 46.875 fps (1024 spf)
Compression mode : Lossy
Delay relative to video : 9ms
Stream size : 135 MiB (12%)
Title : Hindi---R3al_Warrior...Hon3yHD
Language : Hindi
Default : Yes
Forced : Yes

Audio #2
ID : 3
Format : AAC
Format/Info : Advanced Audio Codec
Format profile : LC
Codec ID : A_AAC
Duration : 1h 38mn
Bit rate : 192 Kbps
Channel(s) : 6 channels
Channel positions : Front: L C R, Side: L R, LFE
Sampling rate : 48.0 KHz
Frame rate : 46.875 fps (1024 spf)
Compression mode : Lossy
Delay relative to video : 9ms
Stream size : 134 MiB (12%)
Title : English---R3al_Warrior...Hon3yHD
Language : English
Default : No
Forced : No

Text
ID : 4
Format : UTF-8
Codec ID : S_TEXT/UTF8
Codec ID/Info : UTF-8 Plain Text
Duration : 1h 31mn
Bit rate : 42 bps
Count of elements : 970
Stream size : 28.5 KiB (0%)
Title : English---R3al_Warrior...Hon3yHD
Default : No
Forced : No







I am on FaceBook, Post Your suggestion, and find upcoming Releases at FB Page so keep in touch !!!

Files:

  • The Double 2011 720p BluRay x264 [Dual-Audio][Hindi 2.0(Pak Dub)][English 5.1] - Hon3y.mkv (1.1 GB)
  • Torrent Seed By www.cyber-planet.in.txt (0.1 KB)
  • Hon3yHD.com.txt (0.0 KB)

Comments

Code:

  • udp://tracker.coppersurfer.tk:6969/announce
  • udp://tracker.coppersurfer.tk:6969
  • udp://tracker.opentrackr.org:1337/announce
  • udp://tracker.aletorrenty.pl:2710/announce
  • udp://p4p.arenabg.ch:1337/announce
  • udp://thetracker.org:80/announce
  • udp://tracker.sktorrent.net:6969/announce
  • udp://9.rarbg.me:2710/announce
  • udp://9.rarbg.to:2710/announce
  • udp://zer0day.ch:1337/announce
  • udp://tracker.leechers-paradise.org:6969/announce
  • udp://explodie.org:6969/announce
  • udp://p4p.arenabg.com:1337
  • udp://torrent.gresille.org:80/announce