logo

13 Hours-The Secret Soldiers of Benghazi [2016] Blu-Ray 720p x264...

  • Category Movies
  • Type Dubs/Dual Audio
  • Language Hindi
  • Total size 1.3 GB
  • Uploaded By honey8ee
  • Downloads 694
  • Last checked 1 day ago
  • Date uploaded 11 months ago
  • Seeders 2
  • Leechers 1

13 Hours: The Secret Soldiers of Be...

ThrillerDramaAction

An American Ambassador is killed during an attack at a U.S. compound in Libya as a security team struggles to make sense out of the chaos.

Infohash : D43CF2702FA935A8B6B8028F6A8859BC60C5848F



Encoded By [email protected] @ Hon3yHD

Format : Matroska
Format version : Version 4 / Version 2
File size : 1.28 GiB
Duration : 2h 24mn
Overall bit rate : 1 264 Kbps

Video
ID : 1
Format : AVC
Format/Info : Advanced Video Codec
Format profile : [email protected]
Format settings, CABAC : Yes
Format settings, ReFrames : 12 frames
Codec ID : V_MPEG4/ISO/AVC
Duration : 2h 24mn
Bit rate : 1 047 Kbps
Width : 1 280 pixels
Height : 536 pixels
Display aspect ratio : 2.40:1
Frame rate mode : Constant
Frame rate : 23.976 (24000/1001) fps
Color space : YUV
Chroma subsampling : 4:2:0
Bit depth : 8 bits
Scan type : Progressive
Bits/(Pixel*Frame) : 0.064
Stream size : 1.06 GiB (83%)
Title : [email protected] @ Hon3yHD
Writing library : x264 core 146 r2538 121396c
Language : English
Default : Yes
Forced : No
Color range : Limited
Color primaries : Generic film
Transfer characteristics : BT.709
Matrix coefficients : BT.709


Audio
ID : 2
Format : AAC
Format/Info : Advanced Audio Codec
Format profile : LC
Codec ID : A_AAC
Duration : 2h 24mn
Bit rate : 192 Kbps
Channel(s) : 6 channels
Channel positions : Front: L C R, Side: L R, LFE
Sampling rate : 48.0 KHz
Frame rate : 46.875 fps (1024 spf)
Compression mode : Lossy
Delay relative to video : 9ms
Stream size : 198 MiB (15%)
Title : [email protected] @ Hon3yHD
Language : English
Default : Yes
Forced : No

Hindi & English PGS Subs Muxed

Text #1
ID : 3
Format : PGS
Muxing mode : zlib
Codec ID : S_HDMV/PGS
Codec ID/Info : Picture based subtitle format used on BDs/HD-DVDs
Duration : 2h 14mn
Bit rate : 13.0 Kbps
Count of elements : 4086
Stream size : 12.5 MiB (1%)
Title : [email protected] @ Hon3yHD
Language : English
Default : Yes
Forced : No

Text #2
ID : 4
Format : PGS
Muxing mode : zlib
Codec ID : S_HDMV/PGS
Codec ID/Info : Picture based subtitle format used on BDs/HD-DVDs
Duration : 2h 23mn
Bit rate : 11.3 Kbps
Count of elements : 4304
Stream size : 11.6 MiB (1%)
Title : [email protected] @ Hon3yHD
Language : Hindi
Default : No
Forced : Yes












I am on FaceBook, Post Your suggestion, and find upcoming Releases at FB Page so keep in touch !!!



Files:

  • 13 Hours-The Secret Soldiers of Benghazi [2016] Blu-Ray 720p x264 AAC 5.1-Hon3y.mkv (1.3 GB)
  • Torrent Seed By www.cyber-planet.in.txt (0.1 KB)
  • Hon3yHD.com.txt (0.0 KB)

There are currently no comments. Feel free to leave one :)

Code:

  • udp://tracker.coppersurfer.tk:6969/announce
  • udp://tracker.coppersurfer.tk:6969
  • udp://tracker.opentrackr.org:1337/announce
  • udp://tracker.aletorrenty.pl:2710/announce
  • udp://p4p.arenabg.ch:1337/announce
  • udp://thetracker.org:80/announce
  • udp://tracker.sktorrent.net:6969/announce
  • udp://9.rarbg.me:2710/announce
  • udp://9.rarbg.to:2710/announce
  • udp://zer0day.ch:1337/announce
  • udp://tracker.leechers-paradise.org:6969/announce
  • udp://explodie.org:6969/announce
  • udp://p4p.arenabg.com:1337
  • udp://torrent.gresille.org:80/announce