logo

Criminal 2016 WebHD 720p x264 Dual Audio Hindi(Cleaned)- English....

  • Category Movies
  • Type Dubs/Dual Audio
  • Language Hindi
  • Total size 1.2 GB
  • Uploaded By honey8ee
  • Downloads 4816
  • Last checked 1 day ago
  • Date uploaded 8 months ago
  • Seeders 3
  • Leechers 3

Criminal

Science FictionActionCrimeDrama

The memories & skills of a deceased CIA agent are implanted into an unpredictable and dangerous convict.

Infohash : 80CCDA55AA45A4465D624ECCCD3355403E48767C



Criminal 2016 WebHD 720p x264 Dual Audio Hindi(Cleaned)- English...Hon3y

General


Format : Matroska
Format version : Version 4 / Version 2
File size : 1.14 GiB
Duration : 1h 48mn
Overall bit rate : 1 508 Kbps

Video


Format : AVC
Format/Info : Advanced Video Codec
Format profile : [email protected]
Format settings, CABAC : Yes
Format settings, ReFrames : 12 frames
Codec ID : V_MPEG4/ISO/AVC
Duration : 1h 48mn
Bit rate : 1 320 Kbps
Width : 1 280 pixels
Height : 536 pixels
Display aspect ratio : 2.40:1
Frame rate mode : Constant
Frame rate : 24.000 fps
Color space : YUV
Chroma subsampling : 4:2:0
Bit depth : 8 bits
Scan type : Progressive
Bits/(Pixel*Frame) : 0.080
Stream size : 1 020 MiB (87%)
Title : [email protected]

Hindi audio Credits : KILLERBLAZE

Audio 1


Format : AAC
Format/Info : Advanced Audio Codec
Format profile : LC
Codec ID : A_AAC
Duration : 1h 48mn
Bit rate : 96.0 Kbps
Channel(s) : 2 channels
Channel positions : Front: L R
Sampling rate : 48.0 KHz
Frame rate : 46.875 fps (1024 spf)
Compression mode : Lossy
Delay relative to video : 9ms
Stream size : 74.6 MiB (6%)
Title : Hindi [email protected]
Default : Yes
Forced : Yes

Audio 2


Format : AAC
Format/Info : Advanced Audio Codec
Format profile : LC
Codec ID : A_AAC
Duration : 1h 48mn
Bit rate : 96.0 Kbps
Channel(s) : 2 channels
Channel positions : Front: L R
Sampling rate : 48.0 KHz
Frame rate : 46.875 fps (1024 spf)
Compression mode : Lossy
Delay relative to video : 9ms
Stream size : 74.6 MiB (6%)
Title : [email protected]
Default : No





I am on FaceBook, Post Your suggestion, and find upcoming Releases at FB Page so keep in touch !!!


Files:

  • Criminal 2016 WebHD 720p x264 Dual Audio Hindi(Cleaned)- English...Hon3y.mkv (1.1 GB)
  • Criminal---Sample.mkv (23.2 MB)
  • Torrent Seed By www.cyber-planet.in.txt (0.1 KB)
  • Hon3yHD.com.txt (0.0 KB)

Comments

Code:

  • udp://tracker.coppersurfer.tk:6969/announce
  • udp://tracker.coppersurfer.tk:6969
  • udp://tracker.opentrackr.org:1337/announce
  • udp://tracker.aletorrenty.pl:2710/announce
  • udp://p4p.arenabg.ch:1337/announce
  • udp://thetracker.org:80/announce
  • udp://tracker.sktorrent.net:6969/announce
  • udp://9.rarbg.me:2710/announce
  • udp://9.rarbg.to:2710/announce
  • udp://zer0day.ch:1337/announce
  • udp://tracker.leechers-paradise.org:6969/announce
  • udp://explodie.org:6969/announce
  • udp://p4p.arenabg.com:1337
  • udp://torrent.gresille.org:80/announce