logo

Fast.&.Furious.7.2015.TS.XViD NO1KNOWS

  • Category Movies
  • Type Divx/Xvid
  • Language English
  • Total size 1.6 GB
  • Uploaded By juggs
  • Downloads 597
  • Last checked 3 days ago
  • Date uploaded 2 years ago
  • Seeders 2
  • Leechers 0

Furious 7

ActionCrimeThriller

Continuing the global exploits in the unstoppable franchise built on speed, Vin Diesel, Paul Walker and Dwayne Johnson lead the returning cast of Fast & Furious 7. James Wan directs this chapter of the hugely successful series that also welcomes back favorites Michelle Rodriguez, Jordana Brewster, Tyrese Gibson, Chris "Ludacris" Bridges, Elsa Pataky and Lucas Black. They are joined by international action stars new to the franchise including Jason Statham, Djimon Hounsou, Tony Jaa, Ronda Rousey and Kurt Russell.

Infohash : CBFD19EBB5F12283A0D54A00CB1ED6C500C316D0




http://www.imdb.com/title/tt2820852/


Source : 720 Mp4BA (Many Thanks)

SOURCE

Format : AVI
Format/Info : Audio Video Interleave
File size : 1.58 GiB
Duration : 2h 11mn
Overall bit rate : 1 723 Kbps
Writing library : VirtualDub build 35491/release

Video
ID : 0
Format : MPEG-4 Visual
Format profile : Advanced [email protected]
Format settings, BVOP : 2
Format settings, QPel : No
Format settings, GMC : No warppoints
Format settings, Matrix : Default (H.263)
Muxing mode : Packed bitstream
Codec ID : XVID
Codec ID/Hint : XviD
Duration : 2h 11mn
Bit rate : 1 520 Kbps
Width : 720 pixels
Height : 344 pixels
Display aspect ratio : 2.093
Frame rate : 30.000 fps
Color space : YUV
Chroma subsampling : 4:2:0
Bit depth : 8 bits
Scan type : Progressive
Compression mode : Lossy
Bits/(Pixel*Frame) : 0.205
Stream size : 1.39 GiB (88%)
Writing library : XviD 64

Audio
ID : 1
Format : AC-3
Format/Info : Audio Coding 3
Mode extension : CM (complete main)
Format settings, Endianness : Big
Codec ID : 2000
Duration : 2h 11mn
Bit rate mode : Constant
Bit rate : 192 Kbps
Channel(s) : 2 channels
Channel positions : Front: L R
Sampling rate : 48.0 KHz
Bit depth : 16 bits
Compression mode : Lossy
Stream size : 180 MiB (11%)
Alignment : Aligned on interleaves
Interleave, duration : 33 ms (1.00 video frame)
Interleave, preload duration : 512 ms


Files:

  • Fast.&.Furious.7.2015.TS.XViD NO1KNOWS.avi (1.6 GB)
  • Torrent Downloaded From ExtraTorrent.cc.txt (0.4 KB)
  • sample 2.avi (12.0 MB)
  • sample.avi (12.0 MB)

There are currently no comments. Feel free to leave one :)

Code:

  • udp://9.rarbg.me:2710/announce
  • udp://9.rarbg.com:2710/announce
  • udp://glotorrents.pw:6969/announce
  • http://tracker.aletorrenty.pl:2710/announce
  • udp://coppersurfer.tk:6969/announce
  • udp://eddie4.nl:6969/announce
  • http://torrent.gresille.org/announce