logo

The Hunger Games Mockingjay Part 1 2014 1080p HDTS x264 Pimp4003

  • Category Movies
  • Type Divx/Xvid
  • Language English
  • Total size 3.3 GB
  • Uploaded By pimp4003
  • Downloads 2295
  • Last checked 23 hours ago
  • Date uploaded 2 years ago
  • Seeders 0
  • Leechers 0

The Hunger Games: Mockingjay - Part...

AdventureScience FictionThriller

Katniss Everdeen reluctantly becomes the symbol of a mass rebellion against the autocratic Capitol.

Infohash : D318A28EC73F7066D760A05E8D7377883B03AC8F

NOT BLURAY OR HDRIP....YES ITS 1080P LOOK AT RESOLUTION...DID A LOT OF WORK ON IT...ENJOY



PIMP THE ONE AND ONLY PIMPSTER.....PRESENTS



https://twitter.com/PIMP4003DOTNET



The Hunger Games Mockingjay Part 1 2014 1080p HDTS x264 Pimp4003

http://www.imdb.com/title/tt1951265/

Katniss Everdeen is in District 13 after she shatters the games forever. Under the leadership of President Coin and the advice of her trusted friends, Katniss spreads her wings as she fights to save Peeta and a nation moved by her courage.

Director: Francis Lawrence
Writers: Peter Craig (screenplay), Danny Strong (screenplay), 2 more credits »
Stars: Jennifer Lawrence, Josh Hutcherson, Liam Hemsworth | See full cast and crew »

Video
ID : 1
Format : MPEG-4 Visual
Format profile : [email protected]
Format settings, BVOP : No
Format settings, QPel : No
Format settings, GMC : No warppoints
Format settings, Matrix : Default (H.263)
Codec ID : 20
Duration : 1h 52mn
Bit rate : 4 042 Kbps
Width : 1 920 pixels
Height : 1 080 pixels
Display aspect ratio : 16:9
Frame rate mode : Variable
Frame rate : 23.976 fps
Minimum frame rate : 23.976 fps
Maximum frame rate : 24.000 fps
Color space : YUV
Chroma subsampling : 4:2:0
Bit depth : 8 bits
Scan type : Progressive
Compression mode : Lossy
Bits/(Pixel*Frame) : 0.081
Stream size : 3.18 GiB (96%)
Writing library : ZJMedia MPEG Encoder

Audio
ID : 2
Format : AAC
Format/Info : Advanced Audio Codec
Format profile : LC
Codec ID : 40
Duration : 1h 51mn
Bit rate mode : Variable
Bit rate : 175 Kbps
Channel(s) : 2 channels
Channel positions : Front: L R
Sampling rate : 48.0 KHz
Compression mode : Lossy
Stream size : 140 MiB (4%)
Language : English



Files:

  • The Hunger Games Mockingjay Part 1 2014 1080p HDTS x264 Pimp4003.mp4 (3.3 GB)

Comments

Code:

  • udp://inferno.demonoid.ph:3389/announce
  • udp://open.demonii.com:1337/announce
  • http://tracker1.wasabii.com.tw:6969/announce
  • udp://open.demonii.com:1337/announce
  • udp://tracker.istole.it:80/announce
  • udp://tracker.publicbt.com:80/announce
  • udp://tracker.openbittorrent.com:80/announce
  • udp://9.rarbg.com:2710/announce