logo

Dumb And Dummer 2014 To 1080p HDrip x264 Pimp4003

  • Category Movies
  • Type HD
  • Language English
  • Total size 3.2 GB
  • Uploaded By pimp4003
  • Downloads 317
  • Last checked 23 hours ago
  • Date uploaded 2 years ago
  • Seeders 0
  • Leechers 0

Infohash : 9C46518F6818AE5B3533868F4ECC93C618CA992C

HAS SUBS



PIMP THE ONE AND ONLY PIMPSTER.....PRESENTS



https://twitter.com/PIMP4003DOTNET



Dumb And Dummer 2014 To 1080p HDrip x264 Pimp4003

http://www.imdb.com/title/tt2096672/

20 years since their first adventure, Lloyd and Harry go on a road trip to find Harry's newly discovered daughter, who was given up for adoption.

Directors: Bobby Farrelly, Peter Farrelly
Writers: Sean Anders (screenplay), Mike Cerrone, 4 more credits »
Stars: Jim Carrey, Jeff Daniels, Rob Riggle | See full cast and crew »

Video
ID : 1
Format : MPEG-4 Visual
Format profile : [email protected]
Format settings, BVOP : No
Format settings, QPel : No
Format settings, GMC : No warppoints
Format settings, Matrix : Default (H.263)
Codec ID : 20
Duration : 1h 48mn
Bit rate : 4 074 Kbps
Width : 1 920 pixels
Height : 1 080 pixels
Display aspect ratio : 16:9
Frame rate mode : Variable
Frame rate : 23.976 fps
Minimum frame rate : 23.976 fps
Maximum frame rate : 24.000 fps
Color space : YUV
Chroma subsampling : 4:2:0
Bit depth : 8 bits
Scan type : Progressive
Compression mode : Lossy
Bits/(Pixel*Frame) : 0.082
Stream size : 3.09 GiB (97%)
Writing library : ZJMedia MPEG Encoder

Audio
ID : 2
Format : AAC
Format/Info : Advanced Audio Codec
Format profile : LC
Codec ID : 40
Duration : 1h 48mn
Bit rate mode : Variable
Bit rate : 128 Kbps
Channel(s) : 2 channels
Channel positions : Front: L R
Sampling rate : 48.0 KHz
Compression mode : Lossy
Stream size : 99.4 MiB (3%)



Files:

  • Dumb And Dummer 2014 1080p HDrip x264 Pimp4003.mp4 (3.2 GB)

There are currently no comments. Feel free to leave one :)

Code:

  • udp://inferno.demonoid.ph:3389/announce
  • udp://open.demonii.com:1337/announce
  • http://tracker1.wasabii.com.tw:6969/announce
  • udp://open.demonii.com:1337/announce
  • udp://tracker.istole.it:80/announce
  • udp://tracker.publicbt.com:80/announce
  • udp://tracker.openbittorrent.com:80/announce
  • udp://9.rarbg.com:2710/announce