logo

The Hobbit The Battle Of The Five Armies 2014 720p HDCAM FIRST EN...

  • Category Movies
  • Type Divx/Xvid
  • Language English
  • Total size 2.3 GB
  • Uploaded By pimp4003
  • Downloads 21065
  • Last checked 21 hours ago
  • Date uploaded 2 years ago
  • Seeders 2
  • Leechers 1

The Hobbit: The Battle of the Five ...

AdventureFantasy

Mere seconds after the events of "Desolation", Bilbo and Company continue to claim a mountain of treasure that was guarded long ago: But with Gandalf the Grey also facing some formidable foes of his own, the Hobbit is outmatched when the brutal army of orcs led by Azog the Defiler returns. But with other armies such as the elves and the men of Lake-Town, which are unsure to be trusted, are put to the ultimate test when Smaug's wrath, Azog's sheer strength, and Sauron's force of complete ends attack. All in all, the trusted armies have two choices: unite or die. But even worse, Bilbo gets put on a knife edge and finds himself fighting with Hobbit warfare with all of his might for his dwarf-friends, as the hope for Middle-Earth is all put in Bilbo's hands. The one "precious" thing to end it all.

Infohash : 162B562B18789169CB8A05FF90A1B440E40E12D3



PIMP THE ONE AND ONLY PIMPSTER.....PRESENTS





NO MORE FACEBOOK...ONLY TWITTER

https://twitter.com/PIMP4003DOTNET

http://instagram.com/pimp4003torrents



The Hobbit The Battle Of The Five Armies 2014 720p HDCAM FIRST ENG x264 Pimp4003

http://www.imdb.com/title/tt2310332/

Bilbo and Company are forced to engage in a war against an array of combatants and keep the terrifying Smaug from acquiring a kingdom of treasure and obliterating all of Middle-Earth.

Director: Peter Jackson
Writers: Fran Walsh (screenplay), Philippa Boyens (screenplay), 3 more credits »
Stars: Ian McKellen, Martin Freeman, Richard Armitage | See full cast and crew »

Video
ID                                       : 1
Format                                   : MPEG-4 Visual
Format profile                           : [email protected]
Format settings, BVOP                    : No
Format settings, QPel                    : No
Format settings, GMC                     : No warppoints
Format settings, Matrix                  : Default (H.263)
Codec ID                                 : 20
Duration                                 : 2h 11mn
Bit rate                                 : 2 389 Kbps
Width                                    : 1 280 pixels
Height                                   : 536 pixels
Display aspect ratio                     : 2.40:1
Frame rate mode                          : Variable
Frame rate                               : 59.940 fps
Minimum frame rate                       : 59.916 fps
Maximum frame rate                       : 60.157 fps
Color space                              : YUV
Chroma subsampling                       : 4:2:0
Bit depth                                : 8 bits
Scan type                                : Progressive
Compression mode                         : Lossy
Bits/(Pixel*Frame)                       : 0.058
Stream size                              : 2.19 GiB (95%)
Writing library                          : ZJMedia MPEG Encoder

Audio
ID                                       : 2
Format                                   : AAC
Format/Info                              : Advanced Audio Codec
Format profile                           : LC
Codec ID                                 : 40
Duration                                 : 2h 11mn
Bit rate mode                            : Variable
Bit rate                                 : 128 Kbps
Channel(s)                               : 2 channels
Channel positions                        : Front: L R
Sampling rate                            : 48.0 KHz
Compression mode                         : Lossy
Stream size                              : 120 MiB (5%)






Files:

  • [WWW.PIMP4003.NET] The Hobbit The Battle Of The Five Armies 2014 720p HDCAM FIRST ENG x264 Pimp4003.mp4 (2.3 GB)
  • Torrent Downloaded From Pimp4003.net.txt (0.1 KB)

Comments

Code:

  • udp://inferno.demonoid.ph:3389/announce
  • udp://open.demonii.com:1337/announce
  • http://tracker1.wasabii.com.tw:6969/announce
  • udp://open.demonii.com:1337/announce
  • udp://tracker.istole.it:80/announce
  • udp://tracker.publicbt.com:80/announce
  • udp://tracker.openbittorrent.com:80/announce
  • udp://9.rarbg.com:2710/announce