logo

Alexander And The Terrible, Horrible, No Good, Very Bad Day 2014 ...

  • Category Movies
  • Type Divx/Xvid
  • Language English
  • Total size 1.3 GB
  • Uploaded By pimp4003
  • Downloads 2215
  • Last checked 3 days ago
  • Date uploaded 2 years ago
  • Seeders 0
  • Leechers 0

Alexander and the Terrible, Horribl...

ComedyFamily

Alexander's day begins with gum stuck in his hair, followed by more calamities. Though he finds little sympathy from his family and begins to wonder if bad things only happen to him, his mom, dad, brother, and sister all find themselves living through their own terrible, horrible, no good, very bad day.

Infohash : 8D1B841A7A8D53CBE1E6065C326784B60BA7CEC1

.....http://pimp4003.net/.................ENJOY

PIMP THE ONE AND ONLY PIMPSTER.....PRESENTS



http://www.facebook.com/pimp4003

https://twitter.com/PIMP4003DOTNET

http://instagram.com/pimp4003torrents



Alexander And The Terrible, Horrible, No Good, Very Bad Day 2014 720p HDCAM ENG FIRST x264 Pimp4003

http://www.imdb.com/title/tt16...

Alexander's day begins with gum stuck in his hair, followed by more calamities. Though he finds little sympathy from his family and begins to wonder if bad things only happen to him, his mom, dad, brother, and sister all find themselves living through their own terrible, horrible, no good, very bad day.

Director: Miguel Arteta

Writers: Rob Lieber (screenplay), Rob Lieber (screen story), 1 more credit »

Stars: Steve Carell, Jennifer Garner, Ed Oxenbould |See full cast and crew »

Video

ID : 1

Format : MPEG-4 Visual

Format profile : [email protected]

Format settings, BVOP : No

Format settings, QPel : No

Format settings, GMC : No warppoints

Format settings, Matrix : Default (H.263)

Codec ID : 20

Duration : 1h 13mn

Bit rate : 2 396 Kbps

Width : 1 280 pixels

Height : 536 pixels

Display aspect ratio : 2.40:1

Frame rate mode : Variable

Frame rate : 59.940 fps

Minimum frame rate : 59.916 fps

Maximum frame rate : 60.157 fps

Color space : YUV

Chroma subsampling : 4:2:0

Bit depth : 8 bits

Scan type : Progressive

Compression mode : Lossy

Bits/(Pixel*Frame) : 0.058

Stream size : 1.23 GiB (95%)

Writing library : ZJMedia MPEG Encoder

Audio

ID : 2

Format : AAC

Format/Info : Advanced Audio Codec

Format profile : LC

Codec ID : 40

Duration : 1h 13mn

Bit rate mode : Variable

Bit rate : 128 Kbps

Channel(s) : 2 channels

Channel positions : Front: L R

Sampling rate : 48.0 KHz

Compression mode : Lossy

Stream size : 67.1 MiB (5%)



Files:

  • [WWW.PIMP4003.NET] Alexander And The Terrible, Horrible, No Good, Very Bad Day 2014 720p HDCAM ENG FIRST x264 Pimp4003.mp4 (1.3 GB)
  • Torrent Downloaded From Pimp4003.net.txt (0.1 KB)

There are currently no comments. Feel free to leave one :)

Code:

  • udp://inferno.demonoid.ph:3389/announce
  • udp://open.demonii.com:1337/announce
  • http://tracker1.wasabii.com.tw:6969/announce
  • udp://open.demonii.com:1337/announce
  • udp://tracker.istole.it:80/announce
  • udp://tracker.publicbt.com:80/announce
  • udp://tracker.openbittorrent.com:80/announce
  • udp://9.rarbg.com:2710/announce