logo

Horrible Bosses 2 2014 1080p HDRip HC x264 Pimp4003

  • Category Movies
  • Type Divx/Xvid
  • Language English
  • Total size 3.2 GB
  • Uploaded By pimp4003
  • Downloads 11435
  • Last checked 21 hours ago
  • Date uploaded 2 years ago
  • Seeders 1
  • Leechers 0

Horrible Bosses 2

Comedy

Dale, Kurt and Nick decide to start their own business but things don't go as planned because of a slick investor, prompting the trio to pull off a harebrained and misguided kidnapping scheme.

Infohash : D981F4025F23B6C21F5122016D0379B60BB307F7

.....http://pimp4003.net/.................ENJOY

PIMP THE ONE AND ONLY PIMPSTER.....PRESENTS



http://www.facebook.com/pimp4003

https://twitter.com/PIMP4003DOTNET

http://instagram.com/pimp4003torrents



Horrible Bosses 2 2014 1080p HDRip HC x264 Pimp4003

http://www.imdb.com/title/tt21...

Dale, Kurt and Nick decide to start their own business but things don't go as planned because of a slick investor, prompting the trio to pull off a harebrained and misguided kidnapping scheme.

Director: Sean Anders

Writers: Sean Anders (screenplay), John Morris(screenplay), 5 more credits »

Stars: Jason Bateman, Jason Sudeikis, Charlie Day |See full cast and crew »

Video

ID : 1

Format : MPEG-4 Visual

Format profile : [email protected]

Format settings, BVOP : No

Format settings, QPel : No

Format settings, GMC : No warppoints

Format settings, Matrix : Default (H.263)

Codec ID : 20

Duration : 1h 48mn

Bit rate : 4 079 Kbps

Width : 1 920 pixels

Height : 1 080 pixels

Display aspect ratio : 16:9

Frame rate mode : Variable

Frame rate : 23.976 fps

Minimum frame rate : 23.976 fps

Maximum frame rate : 24.000 fps

Color space : YUV

Chroma subsampling : 4:2:0

Bit depth : 8 bits

Scan type : Progressive

Compression mode : Lossy

Bits/(Pixel*Frame) : 0.082

Stream size : 3.10 GiB (97%)

Writing library : ZJMedia MPEG Encoder

Audio

ID : 2

Format : AAC

Format/Info : Advanced Audio Codec

Format profile : LC

Codec ID : 40

Duration : 1h 48mn

Bit rate mode : Variable

Bit rate : 128 Kbps

Channel(s) : 2 channels

Channel positions : Front: L R

Sampling rate : 48.0 KHz

Compression mode : Lossy

Stream size : 99.5 MiB (3%)



Files:

  • [WWW.PIMP4003.NET] Horrible Bosses 2 2014 1080p HDRip HC x264 Pimp4003.mp4 (3.2 GB)
  • Torrent Downloaded From Pimp4003.net.txt (0.1 KB)

There are currently no comments. Feel free to leave one :)

Code:

  • udp://inferno.demonoid.ph:3389/announce
  • udp://open.demonii.com:1337/announce
  • http://tracker1.wasabii.com.tw:6969/announce
  • udp://open.demonii.com:1337/announce
  • udp://tracker.istole.it:80/announce
  • udp://tracker.publicbt.com:80/announce
  • udp://tracker.openbittorrent.com:80/announce
  • udp://9.rarbg.com:2710/announce