logo

Interstellar 2014 1080p HDTS NEW SOURCE x264 Pimp4003

  • Category Movies
  • Type Divx/Xvid
  • Language English
  • Total size 4.8 GB
  • Uploaded By pimp4003
  • Downloads 36197
  • Last checked 15 hours ago
  • Date uploaded 2 years ago
  • Seeders 1
  • Leechers 0

Interstellar

DramaScience Fiction

Interstellar chronicles the adventures of a group of explorers who make use of a newly discovered wormhole to surpass the limitations on human space travel and conquer the vast distances involved in an interstellar voyage.

Infohash : 8CDBA6D9896D6B0B3580EE1B36C03F19000228D3

.....http://pimp4003.net/BEST COPY OUT SO FAR FOR THIS MOVIE....YES THE SIZE IS 4.81GB BUT I PUT IN A LOT OF EFFORT INTO THIS ONE..TOOK ME ALMOST 4 DAYS TO ENCODE IT....IM NOT GONNA BORE U WITH ALL THE DETAILS BUT ENJOY AND DONT COMPLAIN....IF YOU DON'T LIKE IT....DON'T DOWNLOAD IT SIMPLE HAS THAT.
..................ENJOY
[/size]

[color=green]PIMP THE ONE AND ONLY PIMPSTER.....PRESENTS




http://www.facebook.com/pimp4003

https://twitter.com/PIMP4003DOTNET

http://instagram.com/pimp4003torrents [/size]



Interstellar 2014 1080p HDTS NEW SOURCE x264 Pimp4003

ENJOY

PIMP4003

Video
ID                                       : 1
Format                                   : MPEG-4 Visual
Format profile                           : [email protected]
Format settings, BVOP                    : No
Format settings, QPel                    : No
Format settings, GMC                     : No warppoints
Format settings, Matrix                  : Default (H.263)
Codec ID                                 : 20
Duration                                 : 2h 43mn
Bit rate                                 : 4 074 Kbps
Width                                    : 1 920 pixels
Height                                   : 1 080 pixels
Display aspect ratio                     : 16:9
Frame rate mode                          : Variable
Frame rate                               : 23.976 fps
Minimum frame rate                       : 23.976 fps
Maximum frame rate                       : 24.000 fps
Color space                              : YUV
Chroma subsampling                       : 4:2:0
Bit depth                                : 8 bits
Scan type                                : Progressive
Compression mode                         : Lossy
Bits/(Pixel*Frame)                       : 0.082
Stream size                              : 4.65 GiB (97%)
Writing library                          : ZJMedia MPEG Encoder

Audio
ID                                       : 2
Format                                   : AAC
Format/Info                              : Advanced Audio Codec
Format profile                           : LC
Codec ID                                 : 40
Duration                                 : 2h 43mn
Bit rate mode                            : Variable
Bit rate                                 : 128 Kbps
Channel(s)                               : 2 channels
Channel positions                        : Front: L R
Sampling rate                            : 48.0 KHz
Compression mode                         : Lossy
Stream size                              : 150 MiB (3%)

Files:

  • [WWW.PIMP4003.NET] Interstellar 2014 1080p HDTS x264 Pimp4003.mp4 (4.8 GB)
  • Torrent Downloaded From Pimp4003.net.txt (0.1 KB)

Comments

Code:

  • udp://inferno.demonoid.ph:3389/announce
  • udp://open.demonii.com:1337/announce
  • http://tracker1.wasabii.com.tw:6969/announce
  • udp://open.demonii.com:1337/announce
  • udp://tracker.istole.it:80/announce
  • udp://tracker.publicbt.com:80/announce
  • udp://tracker.openbittorrent.com:80/announce
  • udp://9.rarbg.com:2710/announce